  0
SECTION
  2
HEADER
  9
$ACADVER
  1
AC1014
  9
$ACADMAINTVER
 70
        0
  9
$DWGCODEPAGE
  3
ANSI_1252
  9
$INSBASE
 10
0.0
 20
0.0
 30
0.0
  9
$EXTMIN
 10
1.000000000E+20
 20
1.000000000E+20
 30
1.000000000E+20
  9
$EXTMAX
 10
-1.000000000E+20
 20
-1.000000000E+20
 30
-1.000000000E+20
  9
$LIMMIN
 10
0.0
 20
0.0
  9
$LIMMAX
 10
0.0
 20
0.0
  9
$ORTHOMODE
 70
        0
  9
$REGENMODE
 70
        1
  9
$FILLMODE
 70
        1
  9
$QTEXTMODE
 70
        0
  9
$MIRRTEXT
 70
        1
  9
$DRAGMODE
 70
        2
  9
$LTSCALE
 40
1.0
  9
$OSMODE
 70
        0
  9
$ATTMODE
 70
        1
  9
$TEXTSIZE
 40
0.2
  9
$TRACEWID
 40
0.05
  9
$TEXTSTYLE
  7
STANDARD
  9
$CLAYER
  8
1
  9
$CELTYPE
  6
CONTINUOUS
  9
$CECOLOR
 62
      256
  9
$CELTSCALE
 40
1.0
  9
$DELOBJ
 70
        1
  9
$DISPSILH
 70
        0
  9
$DIMSCALE
 40
1.0
  9
$DIMASZ
 40
3.5
  9
$DIMEXO
 40
4.0
  9
$DIMDLI
 40
0.38
  9
$DIMRND
 40
0.0
  9
$DIMDLE
 40
0.0
  9
$DIMEXE
 40
4.0
  9
$DIMTP
 40
0.0
  9
$DIMTM
 40
0.0
  9
$DIMTXT
 40
3.5
  9
$DIMCEN
 40
0.09
  9
$DIMTSZ
 40
0.0
  9
$DIMTOL
 70
        0
  9
$DIMLIM
 70
        0
  9
$DIMTIH
 70
        0
  9
$DIMTOH
 70
        0
  9
$DIMSE1
 70
        0
  9
$DIMSE2
 70
        0
  9
$DIMTAD
 70
        1
  9
$DIMZIN
 70
        0
  9
$DIMBLK
  1

  9
$DIMASO
 70
        1
  9
$DIMSHO
 70
        1
  9
$DIMPOST
  1

  9
$DIMAPOST
  1

  9
$DIMALT
 70
        0
  9
$DIMALTD
 70
        2
  9
$DIMALTF
 40
25.4
  9
$DIMLFAC
 40
1.0
  9
$DIMTOFL
 70
        1
  9
$DIMTVP
 40
0.0
  9
$DIMTIX
 70
        0
  9
$DIMSOXD
 70
        0
  9
$DIMSAH
 70
        0
  9
$DIMBLK1
  1

  9
$DIMBLK2
  1

  9
$DIMSTYLE
  2
STANDARD
  9
$DIMCLRD
 70
        7
  9
$DIMCLRE
 70
        7
  9
$DIMCLRT
 70
       50
  9
$DIMTFAC
 40
1.0
  9
$DIMGAP
 40
0.09
  9
$DIMJUST
 70
        0
  9
$DIMSD1
 70
        0
  9
$DIMSD2
 70
        0
  9
$DIMTOLJ
 70
        1
  9
$DIMTZIN
 70
        0
  9
$DIMALTZ
 70
        0
  9
$DIMALTTZ
 70
        0
  9
$DIMFIT
 70
        1
  9
$DIMUPT
 70
        0
  9
$DIMUNIT
 70
        2
  9
$DIMDEC
 70
        2
  9
$DIMTDEC
 70
        4
  9
$DIMALTU
 70
        2
  9
$DIMALTTD
 70
        2
  9
$DIMTXSTY
  7
STANDARD
  9
$DIMAUNIT
 70
        0
  9
$LUNITS
 70
        2
  9
$LUPREC
 70
        2
  9
$SKETCHINC
 40
0.1
  9
$FILLETRAD
 40
0.0
  9
$AUNITS
 70
        0
  9
$AUPREC
 70
        2
  9
$MENU
  1
acad
  9
$ELEVATION
 40
0.0
  9
$PELEVATION
 40
0.0
  9
$THICKNESS
 40
0.0
  9
$LIMCHECK
 70
        0
  9
$BLIPMODE
 70
        1
  9
$CHAMFERA
 40
0.0
  9
$CHAMFERB
 40
0.0
  9
$CHAMFERC
 40
0.0
  9
$CHAMFERD
 40
0.0
  9
$SKPOLY
 70
        0
  9
$TDCREATE
 40
0.000000000
  9
$TDUPDATE
 40
0.000000000
  9
$TDINDWG
 40
0.0000000000
  9
$TDUSRTIMER
 40
0.0000000000
  9
$USRTIMER
 70
        1
  9
$ANGBASE
 50
0.0
  9
$ANGDIR
 70
        0
  9
$PDMODE
 70
        2
  9
$PDSIZE
 40
-1.0
  9
$PLINEWID
 40
0.0
  9
$COORDS
 70
        0
  9
$SPLFRAME
 70
        0
  9
$SPLINETYPE
 70
        6
  9
$SPLINESEGS
 70
        8
  9
$ATTDIA
 70
        0
  9
$ATTREQ
 70
        1
  9
$HANDLING
 70
        1
  9
$HANDSEED
  5
61E
  9
$SURFTAB1
 70
        6
  9
$SURFTAB2
 70
        6
  9
$SURFTYPE
 70
        6
  9
$SURFU
 70
        6
  9
$SURFV
 70
        6
  9
$UCSNAME
  2

  9
$UCSORG
 10
0.0
 20
0.0
 30
0.0
  9
$UCSXDIR
 10
1.0
 20
0.0
 30
0.0
  9
$UCSYDIR
 10
0.0
 20
1.0
 30
0.0
  9
$PUCSNAME
  2

  9
$PUCSORG
 10
0.0
 20
0.0
 30
0.0
  9
$PUCSXDIR
 10
1.0
 20
0.0
 30
0.0
  9
$PUCSYDIR
 10
0.0
 20
1.0
 30
0.0
  9
$USERI1
 70
        0
  9
$USERI2
 70
        0
  9
$USERI3
 70
        0
  9
$USERI4
 70
        0
  9
$USERI5
 70
        0
  9
$USERR1
 40
0.0
  9
$USERR2
 40
0.0
  9
$USERR3
 40
0.0
  9
$USERR4
 40
0.0
  9
$USERR5
 40
0.0
  9
$WORLDVIEW
 70
        1
  9
$SHADEDGE
 70
        3
  9
$SHADEDIF
 70
       70
  9
$TILEMODE
 70
        1
  9
$MAXACTVP
 70
       16
  9
$PINSBASE
 10
0.0
 20
0.0
 30
0.0
  9
$PLIMCHECK
 70
        0
  9
$PEXTMIN
 10
1.000000000E+20
 20
1.000000000E+20
 30
1.000000000E+20
  9
$PEXTMAX
 10
-1.000000000E+20
 20
-1.000000000E+20
 30
-1.000000000E+20
  9
$PLIMMIN
 10
0.0
 20
0.0
  9
$PLIMMAX
 10
12.0
 20
9.0
  9
$UNITMODE
 70
        0
  9
$VISRETAIN
 70
        0
  9
$PLINEGEN
 70
        1
  9
$PSLTSCALE
 70
        0
  9
$TREEDEPTH
 70
     3020
  9
$PICKSTYLE
 70
        1
  9
$CMLSTYLE
  2
STANDARD
  9
$CMLJUST
 70
        0
  9
$CMLSCALE
 40
1.0
  9
$PROXYGRAPHICS
 70
        0
  9
$MEASUREMENT
 70
        1
  0
ENDSEC
  0
SECTION
  2
CLASSES
  0
CLASS
  1
LWPOLYLINE
  2
AcDbPolyline
  3
"AutoCAD"
 90
        0
280
        0
281
        1
  0
CLASS
  1
IMAGE
  2
AcDbRasterImage
  3
ISM
 90
      127
280
        0
281
        1
  0
CLASS
  1
OLE2FRAME
  2
AcDbOle2Frame
  3
""
 90
        0
280
        0
281
        1
  0
CLASS
  1
HATCH
  2
AcDbHatch
  3
"ACAD_SEDONA"
 90
        0
280
        0
281
        1
  0
CLASS
  1
DICTIONARYVAR
  2
AcDbDictionaryVar
  3
"AutoCAD"
 90
        0
280
        0
281
        0
  0
CLASS
  1
RASTERVARIABLES
  2
AcDbRasterVariables
  3
ISM
 90
        0
280
        0
281
        0
  0
CLASS
  1
IMAGEDEF
  2
AcDbRasterImageDef
  3
ISM
 90
        0
280
        0
281
        0
  0
CLASS
  1
IMAGEDEF_REACTOR
  2
AcDbRasterImageDefReactor
  3
ISM
 90
        1
280
        0
281
        0
  0
CLASS
  1
IDBUFFER
  2
AcDbIdBuffer
  3
"Acad"
 90
        0
280
        0
281
        0
  0
CLASS
  1
SPATIAL_FILTER
  2
AcDbSpatialFilter
  3
"Acad"
 90
        0
280
        0
281
        0
  0
CLASS
  1
XRECORD
  2
AcDbXrecord
  3
"<Built In>"
 90
        0
280
        0
281
        0
  0
CLASS
  1
SORTENTSTABLE
  2
AcDbSortentsTable
  3
"AutoCAD"
 90
        0
280
        0
281
        0
  0
CLASS
  1
LAYER_INDEX
  2
AcDbLayerIndex
  3
"Acad"
 90
        0
280
        0
281
        0
  0
CLASS
  1
SPATIAL_INDEX
  2
AcDbSpatialIndex
  3
"Acad"
 90
        0
280
        0
281
        0
  0
CLASS
  1
OBJECT_PTR
  2
CAseDLPNTableRecord
  3
"ASE-LPNTableRecord"
 90
        1
280
        0
281
        0
  0
CLASS
  1
LAYOUT
  2
AcDbLayout
  3
"AutoCAD 2000"
 90
        1
280
        0
281
        0
  0
CLASS
  1
PLOTSETTINGS
  2
AcDbPlotSettings
  3
"AutoCAD 2000"
 90
        1
280
        0
281
        0
  0
CLASS
  1
ACDBDICTIONARYWDFLT
  2
AcDbDictionaryWithDefault
  3
"AutoCAD 2000"
 90
        1
280
        0
281
        0
  0
CLASS
  1
ACDBPLACEHOLDER
  2
AcDbPlaceHolder
  3
"AutoCAD 2000"
 90
        1
280
        0
281
        0
  0
ENDSEC
  0
SECTION
  2
TABLES
  0
TABLE
  2
VPORT
  5
7
100
AcDbSymbolTable
 70
        1
  0
VPORT
  5
15
100
AcDbSymbolTableRecord
100
AcDbViewportTableRecord
  2
*ACTIVE
 70
        0
 10
0.0
 20
0.0
 11
1.0
 21
1.0
 12
6.591288
 22
4.579184
 13
0.0
 23
0.0
 14
1.0
 24
1.0
 15
0.0
 25
0.0
 16
0.0
 26
0.0
 36
1.0
 17
0.0
 27
0.0
 37
0.0
 40
9.158369
 41
0.688564
 42
50.0
 43
0.0
 44
0.0
 50
0.0
 51
0.0
 71
        0
 72
      100
 73
        1
 74
        1
 75
        0
 76
        0
 77
        0
 78
        0
  0
ENDTAB
  0
TABLE
  2
LTYPE
  5
4
100
AcDbSymbolTable
 70
        6
  0
LTYPE
  5
11
100
AcDbSymbolTableRecord
100
AcDbLinetypeTableRecord
  2
BYBLOCK
 70
       64
  3

 72
       65
 73
        0
 40
0.0
  0
LTYPE
  5
12
100
AcDbSymbolTableRecord
100
AcDbLinetypeTableRecord
  2
BYLAYER
 70
       64
  3

 72
       65
 73
        0
 40
0.0
  0
LTYPE
  5
13
100
AcDbSymbolTableRecord
100
AcDbLinetypeTableRecord
  2
CONTINUOUS
 70
       64
  3
Solid line
 72
       65
 73
        0
 40
0.0
  0
LTYPE
  5
51
100
AcDbSymbolTableRecord
100
AcDbLinetypeTableRecord
  2
SOLID
 70
       64
  3
Solid line
 72
       65
 73
        0
 40
0.0
  0
LTYPE
  5
57
100
AcDbSymbolTableRecord
100
AcDbLinetypeTableRecord
  2
CENTER
 70
       64
  3
Center ____ _ ____ _ ____ _ ____ _ ____ _ ____
 72
       65
 73
        4
 40
8.0
 49
4.5
 74
        0
 49
-1.5
 74
        0
 49
0.5
 74
        0
 49
-1.5
 74
        0
  0
LTYPE
  5
71
100
AcDbSymbolTableRecord
100
AcDbLinetypeTableRecord
  2
L_DASH
 70
       64
  3
L_dash ____  ____  ____  ____  ____  ____
 72
       65
 73
        2
 40
8.0
 49
6.0
 74
        0
 49
-2.0
 74
        0
  0
ENDTAB
  0
TABLE
  2
LAYER
  5
2
100
AcDbSymbolTable
 70
       51
  0
LAYER
  5
14
100
AcDbSymbolTableRecord
100
AcDbLayerTableRecord
  2
0
 70
        0
 62
        7
  6
CONTINUOUS
  0
LAYER
  5
1D
100
AcDbSymbolTableRecord
100
AcDbLayerTableRecord
  2
1
 70
        0
 62
        7
  6
CONTINUOUS
  0
LAYER
  5
1E
100
AcDbSymbolTableRecord
100
AcDbLayerTableRecord
  2
2
 70
        0
 62
        7
  6
CONTINUOUS
  0
LAYER
  5
1F
100
AcDbSymbolTableRecord
100
AcDbLayerTableRecord
  2
3
 70
        0
 62
        7
  6
CONTINUOUS
  0
LAYER
  5
20
100
AcDbSymbolTableRecord
100
AcDbLayerTableRecord
  2
4
 70
        0
 62
        7
  6
CONTINUOUS
  0
LAYER
  5
21
100
AcDbSymbolTableRecord
100
AcDbLayerTableRecord
  2
5
 70
        0
 62
        7
  6
CONTINUOUS
  0
LAYER
  5
22
100
AcDbSymbolTableRecord
100
AcDbLayerTableRecord
  2
6
 70
        0
 62
        7
  6
CONTINUOUS
  0
LAYER
  5
23
100
AcDbSymbolTableRecord
100
AcDbLayerTableRecord
  2
7
 70
        0
 62
        7
  6
CONTINUOUS
  0
LAYER
  5
24
100
AcDbSymbolTableRecord
100
AcDbLayerTableRecord
  2
8
 70
        0
 62
        7
  6
CONTINUOUS
  0
LAYER
  5
25
100
AcDbSymbolTableRecord
100
AcDbLayerTableRecord
  2
9
 70
        0
 62
        7
  6
CONTINUOUS
  0
LAYER
  5
26
100
AcDbSymbolTableRecord
100
AcDbLayerTableRecord
  2
10
 70
        0
 62
        7
  6
CONTINUOUS
  0
LAYER
  5
27
100
AcDbSymbolTableRecord
100
AcDbLayerTableRecord
  2
11
 70
        0
 62
        7
  6
CONTINUOUS
  0
LAYER
  5
28
100
AcDbSymbolTableRecord
100
AcDbLayerTableRecord
  2
12
 70
        0
 62
        7
  6
CONTINUOUS
  0
LAYER
  5
29
100
AcDbSymbolTableRecord
100
AcDbLayerTableRecord
  2
13
 70
        0
 62
        7
  6
CONTINUOUS
  0
LAYER
  5
2A
100
AcDbSymbolTableRecord
100
AcDbLayerTableRecord
  2
14
 70
        0
 62
        7
  6
CONTINUOUS
  0
LAYER
  5
2B
100
AcDbSymbolTableRecord
100
AcDbLayerTableRecord
  2
15
 70
        0
 62
        7
  6
CONTINUOUS
  0
LAYER
  5
2C
100
AcDbSymbolTableRecord
100
AcDbLayerTableRecord
  2
16
 70
        0
 62
        7
  6
CONTINUOUS
  0
LAYER
  5
2D
100
AcDbSymbolTableRecord
100
AcDbLayerTableRecord
  2
17
 70
        0
 62
        7
  6
CONTINUOUS
  0
LAYER
  5
2E
100
AcDbSymbolTableRecord
100
AcDbLayerTableRecord
  2
18
 70
        0
 62
        7
  6
CONTINUOUS
  0
LAYER
  5
2F
100
AcDbSymbolTableRecord
100
AcDbLayerTableRecord
  2
19
 70
        0
 62
        7
  6
CONTINUOUS
  0
LAYER
  5
30
100
AcDbSymbolTableRecord
100
AcDbLayerTableRecord
  2
20
 70
        0
 62
        7
  6
CONTINUOUS
  0
LAYER
  5
31
100
AcDbSymbolTableRecord
100
AcDbLayerTableRecord
  2
21
 70
        0
 62
        7
  6
CONTINUOUS
  0
LAYER
  5
32
100
AcDbSymbolTableRecord
100
AcDbLayerTableRecord
  2
22
 70
        0
 62
        7
  6
CONTINUOUS
  0
LAYER
  5
33
100
AcDbSymbolTableRecord
100
AcDbLayerTableRecord
  2
23
 70
        0
 62
        7
  6
CONTINUOUS
  0
LAYER
  5
34
100
AcDbSymbolTableRecord
100
AcDbLayerTableRecord
  2
24
 70
        0
 62
        7
  6
CONTINUOUS
  0
LAYER
  5
35
100
AcDbSymbolTableRecord
100
AcDbLayerTableRecord
  2
25
 70
        0
 62
        7
  6
CONTINUOUS
  0
LAYER
  5
36
100
AcDbSymbolTableRecord
100
AcDbLayerTableRecord
  2
26
 70
        0
 62
        7
  6
CONTINUOUS
  0
LAYER
  5
37
100
AcDbSymbolTableRecord
100
AcDbLayerTableRecord
  2
27
 70
        0
 62
        7
  6
CONTINUOUS
  0
LAYER
  5
38
100
AcDbSymbolTableRecord
100
AcDbLayerTableRecord
  2
28
 70
        0
 62
        7
  6
CONTINUOUS
  0
LAYER
  5
39
100
AcDbSymbolTableRecord
100
AcDbLayerTableRecord
  2
29
 70
        0
 62
        7
  6
CONTINUOUS
  0
LAYER
  5
3A
100
AcDbSymbolTableRecord
100
AcDbLayerTableRecord
  2
30
 70
        0
 62
        7
  6
CONTINUOUS
  0
LAYER
  5
3B
100
AcDbSymbolTableRecord
100
AcDbLayerTableRecord
  2
31
 70
        0
 62
        7
  6
CONTINUOUS
  0
LAYER
  5
3C
100
AcDbSymbolTableRecord
100
AcDbLayerTableRecord
  2
32
 70
        0
 62
        7
  6
CONTINUOUS
  0
LAYER
  5
3D
100
AcDbSymbolTableRecord
100
AcDbLayerTableRecord
  2
33
 70
        0
 62
        7
  6
CONTINUOUS
  0
LAYER
  5
3E
100
AcDbSymbolTableRecord
100
AcDbLayerTableRecord
  2
34
 70
        0
 62
        7
  6
CONTINUOUS
  0
LAYER
  5
3F
100
AcDbSymbolTableRecord
100
AcDbLayerTableRecord
  2
35
 70
        0
 62
        7
  6
CONTINUOUS
  0
LAYER
  5
40
100
AcDbSymbolTableRecord
100
AcDbLayerTableRecord
  2
36
 70
        0
 62
        7
  6
CONTINUOUS
  0
LAYER
  5
41
100
AcDbSymbolTableRecord
100
AcDbLayerTableRecord
  2
37
 70
        0
 62
        7
  6
CONTINUOUS
  0
LAYER
  5
42
100
AcDbSymbolTableRecord
100
AcDbLayerTableRecord
  2
38
 70
        0
 62
        7
  6
CONTINUOUS
  0
LAYER
  5
43
100
AcDbSymbolTableRecord
100
AcDbLayerTableRecord
  2
39
 70
        0
 62
        7
  6
CONTINUOUS
  0
LAYER
  5
44
100
AcDbSymbolTableRecord
100
AcDbLayerTableRecord
  2
40
 70
        0
 62
        7
  6
CONTINUOUS
  0
LAYER
  5
45
100
AcDbSymbolTableRecord
100
AcDbLayerTableRecord
  2
41
 70
        0
 62
        7
  6
CONTINUOUS
  0
LAYER
  5
46
100
AcDbSymbolTableRecord
100
AcDbLayerTableRecord
  2
42
 70
        0
 62
        7
  6
CONTINUOUS
  0
LAYER
  5
47
100
AcDbSymbolTableRecord
100
AcDbLayerTableRecord
  2
43
 70
        0
 62
        7
  6
CONTINUOUS
  0
LAYER
  5
48
100
AcDbSymbolTableRecord
100
AcDbLayerTableRecord
  2
44
 70
        0
 62
        7
  6
CONTINUOUS
  0
LAYER
  5
49
100
AcDbSymbolTableRecord
100
AcDbLayerTableRecord
  2
45
 70
        0
 62
        7
  6
CONTINUOUS
  0
LAYER
  5
4A
100
AcDbSymbolTableRecord
100
AcDbLayerTableRecord
  2
46
 70
        0
 62
        7
  6
CONTINUOUS
  0
LAYER
  5
4B
100
AcDbSymbolTableRecord
100
AcDbLayerTableRecord
  2
47
 70
        0
 62
        7
  6
CONTINUOUS
  0
LAYER
  5
4C
100
AcDbSymbolTableRecord
100
AcDbLayerTableRecord
  2
48
 70
        0
 62
        7
  6
CONTINUOUS
  0
LAYER
  5
4D
100
AcDbSymbolTableRecord
100
AcDbLayerTableRecord
  2
49
 70
        0
 62
        7
  6
CONTINUOUS
  0
LAYER
  5
4E
100
AcDbSymbolTableRecord
100
AcDbLayerTableRecord
  2
50
 70
        0
 62
        7
  6
CONTINUOUS
  0
ENDTAB
  0
TABLE
  2
STYLE
  5
3
100
AcDbSymbolTable
 70
        1
  0
STYLE
  5
17
100
AcDbSymbolTableRecord
100
AcDbTextStyleTableRecord
  2
STANDARD
 70
        0
 40
0.0
 41
1.0
 50
0.0
 71
        0
 42
0.0
  3
txt
  4

  0
ENDTAB
  0
TABLE
  2
VIEW
  5
5
100
AcDbSymbolTable
 70
        0
  0
ENDTAB
  0
TABLE
  2
UCS
  5
6
100
AcDbSymbolTable
 70
        0
  0
ENDTAB
  0
TABLE
  2
APPID
  5
8
100
AcDbSymbolTable
 70
        1
  0
APPID
  5
16
100
AcDbSymbolTableRecord
100
AcDbRegAppTableRecord
  2
ACAD
 70
        0
  0
ENDTAB
  0
TABLE
  2
DIMSTYLE
  5
9
100
AcDbSymbolTable
 70
       19
  0
DIMSTYLE
105
18
100
AcDbSymbolTableRecord
100
AcDbDimStyleTableRecord
  2
STANDARD
 70
        0
  3

  4

  5

  6

  7

 40
1.0
 41
3.5
 42
4.0
 43
0.38
 44
4.0
 45
0.0
 46
0.0
 47
0.0
 48
0.0
 71
        0
 72
        0
 73
        0
 74
        0
 75
        0
 76
        0
 77
        1
 78
        0
140
3.5
141
0.09
142
0.0
143
25.4
144
1.0
145
0.0
146
1.0
147
0.09
170
        0
171
        2
172
        1
173
        0
174
        0
175
        0
176
        7
177
        7
178
       50
270
        2
271
        4
272
        4
273
        2
274
        2
275
        0
280
        0
281
        0
282
        0
283
        1
284
        0
285
        0
286
        0
287
        1
288
        0
340
17
  0
DIMSTYLE
105
A2
100
AcDbSymbolTableRecord
100
AcDbDimStyleTableRecord
  2
2
 70
        0
  3

  4

  5

  6

  7

 40
1.0
 41
3.5
 42
4.0
 43
0.38
 44
4.0
 45
0.0
 46
0.0
 47
0.0
 48
0.0
 71
        0
 72
        0
 73
        0
 74
        0
 75
        0
 76
        0
 77
        1
 78
        0
140
3.5
141
0.09
142
0.0
143
25.4
144
1.0
145
0.0
146
1.0
147
0.09
170
        0
171
        2
172
        1
173
        0
174
        0
175
        0
176
        7
177
        7
178
        7
270
        2
271
        2
272
        4
273
        2
274
        2
275
        0
280
        0
281
        0
282
        0
283
        1
284
        0
285
        0
286
        0
287
        1
288
        0
340
17
  0
DIMSTYLE
105
B2
100
AcDbSymbolTableRecord
100
AcDbDimStyleTableRecord
  2
3
 70
        0
  3

  4

  5

  6

  7

 40
1.0
 41
3.5
 42
4.0
 43
0.38
 44
4.0
 45
0.0
 46
0.0
 47
0.0
 48
0.0
 71
        0
 72
        0
 73
        0
 74
        0
 75
        0
 76
        0
 77
        1
 78
        0
140
3.5
141
0.09
142
0.0
143
25.4
144
1.0
145
0.0
146
1.0
147
0.09
170
        0
171
        2
172
        1
173
        0
174
        0
175
        0
176
        7
177
        7
178
        7
270
        2
271
        2
272
        4
273
        2
274
        2
275
        0
280
        0
281
        0
282
        0
283
        1
284
        0
285
        0
286
        0
287
        1
288
        0
340
17
  0
DIMSTYLE
105
C2
100
AcDbSymbolTableRecord
100
AcDbDimStyleTableRecord
  2
4
 70
        0
  3

  4

  5

  6

  7

 40
1.0
 41
3.5
 42
4.0
 43
0.38
 44
4.0
 45
0.0
 46
0.0
 47
0.0
 48
0.0
 71
        0
 72
        0
 73
        0
 74
        0
 75
        0
 76
        0
 77
        1
 78
        0
140
3.5
141
0.09
142
0.0
143
25.4
144
1.0
145
0.0
146
1.0
147
0.09
170
        0
171
        2
172
        1
173
        0
174
        0
175
        0
176
        7
177
        7
178
        7
270
        2
271
        2
272
        4
273
        2
274
        2
275
        0
280
        0
281
        0
282
        0
283
        1
284
        0
285
        0
286
        0
287
        1
288
        0
340
17
  0
DIMSTYLE
105
D2
100
AcDbSymbolTableRecord
100
AcDbDimStyleTableRecord
  2
5
 70
        0
  3

  4

  5

  6

  7

 40
1.0
 41
3.5
 42
4.0
 43
0.38
 44
4.0
 45
0.0
 46
0.0
 47
0.0
 48
0.0
 71
        0
 72
        0
 73
        0
 74
        0
 75
        0
 76
        0
 77
        1
 78
        0
140
3.5
141
0.09
142
0.0
143
25.4
144
1.0
145
0.0
146
1.0
147
0.09
170
        0
171
        2
172
        1
173
        0
174
        0
175
        0
176
        7
177
        7
178
        7
270
        2
271
        2
272
        4
273
        2
274
        2
275
        0
280
        0
281
        0
282
        0
283
        1
284
        0
285
        0
286
        0
287
        1
288
        0
340
17
  0
DIMSTYLE
105
E7
100
AcDbSymbolTableRecord
100
AcDbDimStyleTableRecord
  2
6
 70
        0
  3

  4

  5

  6

  7

 40
1.0
 41
3.5
 42
4.0
 43
0.38
 44
4.0
 45
0.0
 46
0.0
 47
0.0
 48
0.0
 71
        0
 72
        0
 73
        0
 74
        0
 75
        0
 76
        0
 77
        1
 78
        0
140
3.5
141
0.09
142
0.0
143
25.4
144
1.0
145
0.0
146
1.0
147
0.09
170
        0
171
        2
172
        1
173
        0
174
        0
175
        0
176
        7
177
        7
178
        7
270
        2
271
        2
272
        4
273
        2
274
        2
275
        0
280
        0
281
        0
282
        0
283
        1
284
        0
285
        0
286
        0
287
        1
288
        0
340
17
  0
DIMSTYLE
105
F7
100
AcDbSymbolTableRecord
100
AcDbDimStyleTableRecord
  2
7
 70
        0
  3

  4

  5

  6

  7

 40
1.0
 41
3.5
 42
4.0
 43
0.38
 44
4.0
 45
0.0
 46
0.0
 47
0.0
 48
0.0
 71
        0
 72
        0
 73
        0
 74
        0
 75
        0
 76
        0
 77
        1
 78
        0
140
3.5
141
0.09
142
0.0
143
25.4
144
1.0
145
0.0
146
1.0
147
0.09
170
        0
171
        2
172
        1
173
        0
174
        0
175
        0
176
        7
177
        7
178
        7
270
        2
271
        2
272
        4
273
        2
274
        2
275
        0
280
        0
281
        0
282
        0
283
        1
284
        0
285
        0
286
        0
287
        1
288
        0
340
17
  0
DIMSTYLE
105
107
100
AcDbSymbolTableRecord
100
AcDbDimStyleTableRecord
  2
8
 70
        0
  3

  4

  5

  6

  7

 40
1.0
 41
3.5
 42
4.0
 43
0.38
 44
4.0
 45
0.0
 46
0.0
 47
0.0
 48
0.0
 71
        0
 72
        0
 73
        0
 74
        0
 75
        0
 76
        0
 77
        1
 78
        0
140
3.5
141
0.09
142
0.0
143
25.4
144
1.0
145
0.0
146
1.0
147
0.09
170
        0
171
        2
172
        1
173
        0
174
        0
175
        0
176
        7
177
        7
178
        7
270
        2
271
        2
272
        4
273
        2
274
        2
275
        0
280
        0
281
        0
282
        0
283
        1
284
        0
285
        0
286
        0
287
        1
288
        0
340
17
  0
DIMSTYLE
105
117
100
AcDbSymbolTableRecord
100
AcDbDimStyleTableRecord
  2
9
 70
        0
  3

  4

  5

  6

  7

 40
1.0
 41
3.5
 42
4.0
 43
0.38
 44
4.0
 45
0.0
 46
0.0
 47
0.0
 48
0.0
 71
        0
 72
        0
 73
        0
 74
        0
 75
        0
 76
        0
 77
        1
 78
        0
140
3.5
141
0.09
142
0.0
143
25.4
144
1.0
145
0.0
146
1.0
147
0.09
170
        0
171
        2
172
        1
173
        0
174
        0
175
        0
176
        7
177
        7
178
        7
270
        2
271
        2
272
        4
273
        2
274
        2
275
        0
280
        0
281
        0
282
        0
283
        1
284
        0
285
        0
286
        0
287
        1
288
        0
340
17
  0
DIMSTYLE
105
1ED
100
AcDbSymbolTableRecord
100
AcDbDimStyleTableRecord
  2
10
 70
        0
  3

  4

  5

  6

  7

 40
1.0
 41
3.5
 42
4.0
 43
0.38
 44
4.0
 45
0.0
 46
0.0
 47
0.0
 48
0.0
 71
        0
 72
        0
 73
        0
 74
        0
 75
        0
 76
        0
 77
        1
 78
        0
140
3.5
141
0.09
142
0.0
143
25.4
144
1.0
145
0.0
146
1.0
147
0.09
170
        0
171
        2
172
        1
173
        0
174
        0
175
        0
176
        7
177
        7
178
        7
270
        2
271
        2
272
        4
273
        2
274
        2
275
        0
280
        0
281
        0
282
        0
283
        1
284
        0
285
        0
286
        0
287
        1
288
        0
340
17
  0
DIMSTYLE
105
274
100
AcDbSymbolTableRecord
100
AcDbDimStyleTableRecord
  2
11
 70
        0
  3

  4

  5

  6

  7

 40
1.0
 41
3.5
 42
4.0
 43
0.38
 44
4.0
 45
0.0
 46
0.0
 47
0.0
 48
0.0
 71
        0
 72
        0
 73
        0
 74
        0
 75
        0
 76
        0
 77
        1
 78
        0
140
3.5
141
0.09
142
0.0
143
25.4
144
1.0
145
0.0
146
1.0
147
0.09
170
        0
171
        2
172
        1
173
        0
174
        0
175
        0
176
        7
177
        7
178
        7
270
        2
271
        2
272
        4
273
        2
274
        2
275
        0
280
        0
281
        0
282
        0
283
        1
284
        0
285
        0
286
        0
287
        1
288
        0
340
17
  0
DIMSTYLE
105
2F2
100
AcDbSymbolTableRecord
100
AcDbDimStyleTableRecord
  2
12
 70
        0
  3

  4

  5

  6

  7

 40
1.0
 41
3.5
 42
4.0
 43
0.38
 44
4.0
 45
0.0
 46
0.0
 47
0.0
 48
0.0
 71
        0
 72
        0
 73
        0
 74
        0
 75
        0
 76
        0
 77
        1
 78
        0
140
3.5
141
0.09
142
0.0
143
25.4
144
1.0
145
0.0
146
1.0
147
0.09
170
        0
171
        2
172
        1
173
        0
174
        0
175
        0
176
        7
177
        7
178
        7
270
        2
271
        2
272
        4
273
        2
274
        2
275
        0
280
        0
281
        0
282
        0
283
        1
284
        0
285
        0
286
        0
287
        1
288
        0
340
17
  0
DIMSTYLE
105
306
100
AcDbSymbolTableRecord
100
AcDbDimStyleTableRecord
  2
13
 70
        0
  3

  4

  5

  6

  7

 40
1.0
 41
3.5
 42
4.0
 43
0.38
 44
4.0
 45
0.0
 46
0.0
 47
0.0
 48
0.0
 71
        0
 72
        0
 73
        0
 74
        0
 75
        0
 76
        0
 77
        1
 78
        0
140
3.5
141
0.09
142
0.0
143
25.4
144
1.0
145
0.0
146
1.0
147
0.09
170
        0
171
        2
172
        1
173
        0
174
        0
175
        0
176
        7
177
        7
178
        7
270
        2
271
        2
272
        4
273
        2
274
        2
275
        0
280
        0
281
        0
282
        0
283
        1
284
        0
285
        0
286
        0
287
        1
288
        0
340
17
  0
DIMSTYLE
105
319
100
AcDbSymbolTableRecord
100
AcDbDimStyleTableRecord
  2
14
 70
        0
  3

  4

  5

  6

  7

 40
1.0
 41
3.5
 42
4.0
 43
0.38
 44
4.0
 45
0.0
 46
0.0
 47
0.0
 48
0.0
 71
        0
 72
        0
 73
        0
 74
        0
 75
        0
 76
        0
 77
        1
 78
        0
140
3.5
141
0.09
142
0.0
143
25.4
144
1.0
145
0.0
146
1.0
147
0.09
170
        0
171
        2
172
        1
173
        0
174
        0
175
        0
176
        7
177
        7
178
        7
270
        2
271
        2
272
        4
273
        2
274
        2
275
        0
280
        0
281
        0
282
        0
283
        1
284
        0
285
        0
286
        0
287
        1
288
        0
340
17
  0
DIMSTYLE
105
32C
100
AcDbSymbolTableRecord
100
AcDbDimStyleTableRecord
  2
15
 70
        0
  3

  4

  5

  6

  7

 40
1.0
 41
3.5
 42
4.0
 43
0.38
 44
4.0
 45
0.0
 46
0.0
 47
0.0
 48
0.0
 71
        0
 72
        0
 73
        0
 74
        0
 75
        0
 76
        0
 77
        1
 78
        0
140
3.5
141
0.09
142
0.0
143
25.4
144
1.0
145
0.0
146
1.0
147
0.09
170
        0
171
        2
172
        1
173
        0
174
        0
175
        0
176
        7
177
        7
178
        7
270
        2
271
        2
272
        4
273
        2
274
        2
275
        0
280
        0
281
        0
282
        0
283
        1
284
        0
285
        0
286
        0
287
        1
288
        0
340
17
  0
DIMSTYLE
105
376
100
AcDbSymbolTableRecord
100
AcDbDimStyleTableRecord
  2
16
 70
        0
  3

  4

  5

  6

  7

 40
1.0
 41
3.5
 42
4.0
 43
0.38
 44
4.0
 45
0.0
 46
0.0
 47
0.0
 48
0.0
 71
        0
 72
        0
 73
        0
 74
        0
 75
        0
 76
        0
 77
        1
 78
        0
140
3.5
141
0.09
142
0.0
143
25.4
144
1.0
145
0.0
146
1.0
147
0.09
170
        0
171
        2
172
        1
173
        0
174
        0
175
        0
176
        7
177
        7
178
        7
270
        2
271
        2
272
        4
273
        2
274
        2
275
        0
280
        0
281
        0
282
        0
283
        1
284
        0
285
        0
286
        0
287
        1
288
        0
340
17
  0
DIMSTYLE
105
389
100
AcDbSymbolTableRecord
100
AcDbDimStyleTableRecord
  2
17
 70
        0
  3

  4

  5

  6

  7

 40
1.0
 41
3.5
 42
4.0
 43
0.38
 44
4.0
 45
0.0
 46
0.0
 47
0.0
 48
0.0
 71
        0
 72
        0
 73
        0
 74
        0
 75
        0
 76
        0
 77
        1
 78
        0
140
3.5
141
0.09
142
0.0
143
25.4
144
1.0
145
0.0
146
1.0
147
0.09
170
        0
171
        2
172
        1
173
        0
174
        0
175
        0
176
        7
177
        7
178
        7
270
        2
271
        2
272
        4
273
        2
274
        2
275
        0
280
        0
281
        0
282
        0
283
        1
284
        0
285
        0
286
        0
287
        1
288
        0
340
17
  0
DIMSTYLE
105
404
100
AcDbSymbolTableRecord
100
AcDbDimStyleTableRecord
  2
18
 70
        0
  3

  4

  5

  6

  7

 40
1.0
 41
3.5
 42
4.0
 43
0.38
 44
4.0
 45
0.0
 46
0.0
 47
0.0
 48
0.0
 71
        0
 72
        0
 73
        0
 74
        0
 75
        0
 76
        0
 77
        1
 78
        0
140
3.5
141
0.09
142
0.0
143
25.4
144
1.0
145
0.0
146
1.0
147
0.09
170
        0
171
        2
172
        1
173
        0
174
        0
175
        0
176
        7
177
        7
178
        7
270
        2
271
        2
272
        4
273
        2
274
        2
275
        0
280
        0
281
        0
282
        0
283
        1
284
        0
285
        0
286
        0
287
        1
288
        0
340
17
  0
DIMSTYLE
105
415
100
AcDbSymbolTableRecord
100
AcDbDimStyleTableRecord
  2
19
 70
        0
  3

  4

  5

  6

  7

 40
1.0
 41
3.5
 42
4.0
 43
0.38
 44
4.0
 45
0.0
 46
0.0
 47
0.0
 48
0.0
 71
        0
 72
        0
 73
        0
 74
        0
 75
        0
 76
        0
 77
        1
 78
        0
140
3.5
141
0.09
142
0.0
143
25.4
144
1.0
145
0.0
146
1.0
147
0.09
170
        0
171
        2
172
        1
173
        0
174
        0
175
        0
176
        7
177
        7
178
        7
270
        2
271
        2
272
        4
273
        2
274
        2
275
        0
280
        0
281
        0
282
        0
283
        1
284
        0
285
        0
286
        0
287
        1
288
        0
340
17
  0
ENDTAB
  0
TABLE
  2
BLOCK_RECORD
  5
1
100
AcDbSymbolTable
 70
       20
  0
BLOCK_RECORD
  5
A
100
AcDbSymbolTableRecord
100
AcDbBlockTableRecord
  2
*MODEL_SPACE
  0
BLOCK_RECORD
  5
B
100
AcDbSymbolTableRecord
100
AcDbBlockTableRecord
  2
*PAPER_SPACE
  0
BLOCK_RECORD
  5
4F
100
AcDbSymbolTableRecord
100
AcDbBlockTableRecord
  2
0
  0
BLOCK_RECORD
  5
5B
100
AcDbSymbolTableRecord
100
AcDbBlockTableRecord
  2
*L1
  0
BLOCK_RECORD
  5
94
100
AcDbSymbolTableRecord
100
AcDbBlockTableRecord
  2
*D2
  0
BLOCK_RECORD
  5
A4
100
AcDbSymbolTableRecord
100
AcDbBlockTableRecord
  2
*D3
  0
BLOCK_RECORD
  5
B4
100
AcDbSymbolTableRecord
100
AcDbBlockTableRecord
  2
*D4
  0
BLOCK_RECORD
  5
C4
100
AcDbSymbolTableRecord
100
AcDbBlockTableRecord
  2
*D5
  0
BLOCK_RECORD
  5
D7
100
AcDbSymbolTableRecord
100
AcDbBlockTableRecord
  2
*D6
  0
BLOCK_RECORD
  5
E9
100
AcDbSymbolTableRecord
100
AcDbBlockTableRecord
  2
*D7
  0
BLOCK_RECORD
  5
F9
100
AcDbSymbolTableRecord
100
AcDbBlockTableRecord
  2
*D8
  0
BLOCK_RECORD
  5
109
100
AcDbSymbolTableRecord
100
AcDbBlockTableRecord
  2
*D9
  0
BLOCK_RECORD
  5
1DF
100
AcDbSymbolTableRecord
100
AcDbBlockTableRecord
  2
*D10
  0
BLOCK_RECORD
  5
266
100
AcDbSymbolTableRecord
100
AcDbBlockTableRecord
  2
*D11
  0
BLOCK_RECORD
  5
2E4
100
AcDbSymbolTableRecord
100
AcDbBlockTableRecord
  2
*D12
  0
BLOCK_RECORD
  5
2F8
100
AcDbSymbolTableRecord
100
AcDbBlockTableRecord
  2
*D13
  0
BLOCK_RECORD
  5
30B
100
AcDbSymbolTableRecord
100
AcDbBlockTableRecord
  2
*D14
  0
BLOCK_RECORD
  5
31D
100
AcDbSymbolTableRecord
100
AcDbBlockTableRecord
  2
*D15
  0
BLOCK_RECORD
  5
367
100
AcDbSymbolTableRecord
100
AcDbBlockTableRecord
  2
*D16
  0
BLOCK_RECORD
  5
37A
100
AcDbSymbolTableRecord
100
AcDbBlockTableRecord
  2
*D17
  0
BLOCK_RECORD
  5
3F6
100
AcDbSymbolTableRecord
100
AcDbBlockTableRecord
  2
*D18
  0
BLOCK_RECORD
  5
407
100
AcDbSymbolTableRecord
100
AcDbBlockTableRecord
  2
*D19
  0
ENDTAB
  0
ENDSEC
  0
SECTION
  2
BLOCKS
  0
BLOCK
  5
D
100
AcDbEntity
  8
0
100
AcDbBlockBegin
  2
*MODEL_SPACE
 70
        0
 10
0.0
 20
0.0
 30
0.0
  3
*MODEL_SPACE
  1

  0
ENDBLK
  5
E
100
AcDbEntity
  8
0
100
AcDbBlockEnd
  0
BLOCK
  5
F
100
AcDbEntity
 67
        1
  8
0
100
AcDbBlockBegin
  2
*PAPER_SPACE
 70
        0
 10
0.0
 20
0.0
 30
0.0
  3
*PAPER_SPACE
  1

  0
ENDBLK
  5
10
100
AcDbEntity
 67
        1
  8
0
100
AcDbBlockEnd
  0
BLOCK
  5
50
100
AcDbEntity
  8
0
100
AcDbBlockBegin
  2
0
 70
        0
 10
0.0
 20
0.0
 30
0.0
  3
0
  1

  0
LINE
  5
52
100
AcDbEntity
  8
1
  6
SOLID
 62
        7
100
AcDbLine
 10
-973.854916413
 20
905.038720012
 30
0.0
 11
-973.854916413
 21
906.538720012
 31
0.0
  0
LINE
  5
53
100
AcDbEntity
  8
1
  6
SOLID
 62
        7
100
AcDbLine
 10
-913.854916413
 20
905.038720012
 30
0.0
 11
-973.854916413
 21
905.038720012
 31
0.0
  0
LINE
  5
54
100
AcDbEntity
  8
1
  6
SOLID
 62
        7
100
AcDbLine
 10
-915.354916413
 20
906.538720012
 30
0.0
 11
-973.854916413
 21
906.538720012
 31
0.0
  0
LINE
  5
55
100
AcDbEntity
  8
1
  6
SOLID
 62
        7
100
AcDbLine
 10
-915.354916413
 20
906.538720012
 30
0.0
 11
-915.354916413
 21
919.038742198
 31
0.0
  0
LINE
  5
56
100
AcDbEntity
  8
1
  6
SOLID
 62
        7
100
AcDbLine
 10
-913.854916413
 20
919.038742198
 30
0.0
 11
-915.354916413
 21
919.038742198
 31
0.0
  0
LINE
  5
58
100
AcDbEntity
  8
1
  6
CENTER
 62
        2
100
AcDbLine
 10
-905.708343193
 20
914.038742198
 30
0.0
 11
-922.841421862
 21
914.038742198
 31
0.0
  0
ENDBLK
  5
59
100
AcDbEntity
  8
0
100
AcDbBlockEnd
  0
BLOCK
  5
5C
100
AcDbEntity
  8
0
100
AcDbBlockBegin
  2
*L1
 70
        0
 10
0.0
 20
0.0
 30
0.0
  3
*L1
  1

  0
LINE
  5
5D
100
AcDbEntity
  8
1
  6
SOLID
 62
        7
100
AcDbLine
 10
116.538848877
 20
613.636474609
 30
0.0
 11
112.861976624
 21
678.771118164
 31
0.0
  0
LINE
  5
5E
100
AcDbEntity
  8
1
  6
SOLID
 62
        7
100
AcDbLine
 10
112.974914551
 20
629.460754395
 30
0.0
 11
116.538848877
 21
613.636474609
 31
0.0
  0
LINE
  5
5F
100
AcDbEntity
  8
1
  6
SOLID
 62
        7
100
AcDbLine
 10
116.538848877
 20
613.636474609
 30
0.0
 11
118.299240112
 21
629.761352539
 31
0.0
  0
LINE
  5
60
100
AcDbEntity
  8
1
  6
SOLID
 62
        7
100
AcDbLine
 10
118.299240112
 20
629.761352539
 30
0.0
 11
112.974914551
 21
629.460754395
 31
0.0
  0
TEXT
  5
61
100
AcDbEntity
  8
1
  6
SOLID
 62
        7
100
AcDbText
 10
65.752731323
 20
686.983459473
 30
0.0
 40
16.0
  1
4xM16x40
 72
        5
 11
159.971214294
 21
686.983459473
 31
0.0
100
AcDbText
  0
LINE
  5
62
100
AcDbEntity
  8
1
  6
SOLID
 62
        7
100
AcDbLine
 10
57.540359497
 20
678.771118164
 30
0.0
 11
168.18359375
 21
678.771118164
 31
0.0
  0
ENDBLK
  5
63
100
AcDbEntity
  8
0
100
AcDbBlockEnd
  0
BLOCK
  5
95
100
AcDbEntity
  8
0
100
AcDbBlockBegin
  2
*D2
 70
        0
 10
0.0
 20
0.0
 30
0.0
  3
*D2
  1

  0
LINE
  5
96
100
AcDbEntity
  8
1
  6
SOLID
 62
        7
100
AcDbLine
 10
-113.117767334
 20
569.714355469
 30
0.0
 11
-113.117767334
 21
466.397674561
 31
0.0
  0
LINE
  5
97
100
AcDbEntity
  8
1
  6
SOLID
 62
        7
100
AcDbLine
 10
146.882232666
 20
569.714355469
 30
0.0
 11
146.882232666
 21
466.397674561
 31
0.0
  0
LINE
  5
98
100
AcDbEntity
  8
1
  6
SOLID
 62
        7
100
AcDbLine
 10
-113.117767334
 20
470.721984863
 30
0.0
 11
146.882232666
 21
470.721984863
 31
0.0
  0
LINE
  5
99
100
AcDbEntity
  8
1
  6
SOLID
 62
        7
100
AcDbLine
 10
-97.117767334
 20
473.388397217
 30
0.0
 11
-113.117767334
 21
470.721984863
 31
0.0
  0
LINE
  5
9A
100
AcDbEntity
  8
1
  6
SOLID
 62
        7
100
AcDbLine
 10
-113.117767334
 20
470.721984863
 30
0.0
 11
-97.117767334
 21
468.05557251
 31
0.0
  0
LINE
  5
9B
100
AcDbEntity
  8
1
  6
SOLID
 62
        7
100
AcDbLine
 10
-97.117767334
 20
468.05557251
 30
0.0
 11
-97.117767334
 21
473.388397217
 31
0.0
  0
LINE
  5
9C
100
AcDbEntity
  8
1
  6
SOLID
 62
        7
100
AcDbLine
 10
146.882232666
 20
470.721984863
 30
0.0
 11
-113.117767334
 21
470.721984863
 31
0.0
  0
LINE
  5
9D
100
AcDbEntity
  8
1
  6
SOLID
 62
        7
100
AcDbLine
 10
130.882232666
 20
468.05557251
 30
0.0
 11
146.882232666
 21
470.721984863
 31
0.0
  0
LINE
  5
9E
100
AcDbEntity
  8
1
  6
SOLID
 62
        7
100
AcDbLine
 10
146.882232666
 20
470.721984863
 30
0.0
 11
130.882232666
 21
473.388397217
 31
0.0
  0
LINE
  5
9F
100
AcDbEntity
  8
1
  6
SOLID
 62
        7
100
AcDbLine
 10
130.882232666
 20
473.388397217
 30
0.0
 11
130.882232666
 21
468.05557251
 31
0.0
  0
TEXT
  5
A0
100
AcDbEntity
  8
1
  6
SOLID
 62
        7
100
AcDbText
 10
-1.915305614
 20
478.721984863
 30
0.0
 40
16.0
  1
260
 72
        5
 11
35.6797719
 21
478.721984863
 31
0.0
100
AcDbText
  0
ENDBLK
  5
A1
100
AcDbEntity
  8
0
100
AcDbBlockEnd
  0
BLOCK
  5
A5
100
AcDbEntity
  8
0
100
AcDbBlockBegin
  2
*D3
 70
        0
 10
0.0
 20
0.0
 30
0.0
  3
*D3
  1

  0
LINE
  5
A6
100
AcDbEntity
  8
1
  6
SOLID
 62
        7
100
AcDbLine
 10
-83.117767334
 20
557.663085938
 30
0.0
 11
-83.117767334
 21
501.397674561
 31
0.0
  0
LINE
  5
A7
100
AcDbEntity
  8
1
  6
SOLID
 62
        7
100
AcDbLine
 10
116.882232666
 20
557.663085938
 30
0.0
 11
116.882232666
 21
501.397674561
 31
0.0
  0
LINE
  5
A8
100
AcDbEntity
  8
1
  6
SOLID
 62
        7
100
AcDbLine
 10
-83.117767334
 20
505.721984863
 30
0.0
 11
116.882232666
 21
505.721984863
 31
0.0
  0
LINE
  5
A9
100
AcDbEntity
  8
1
  6
SOLID
 62
        7
100
AcDbLine
 10
-67.117767334
 20
508.388397217
 30
0.0
 11
-83.117767334
 21
505.721984863
 31
0.0
  0
LINE
  5
AA
100
AcDbEntity
  8
1
  6
SOLID
 62
        7
100
AcDbLine
 10
-83.117767334
 20
505.721984863
 30
0.0
 11
-67.117767334
 21
503.05557251
 31
0.0
  0
LINE
  5
AB
100
AcDbEntity
  8
1
  6
SOLID
 62
        7
100
AcDbLine
 10
-67.117767334
 20
503.05557251
 30
0.0
 11
-67.117767334
 21
508.388397217
 31
0.0
  0
LINE
  5
AC
100
AcDbEntity
  8
1
  6
SOLID
 62
        7
100
AcDbLine
 10
116.882232666
 20
505.721984863
 30
0.0
 11
-83.117767334
 21
505.721984863
 31
0.0
  0
LINE
  5
AD
100
AcDbEntity
  8
1
  6
SOLID
 62
        7
100
AcDbLine
 10
100.882232666
 20
503.05557251
 30
0.0
 11
116.882232666
 21
505.721984863
 31
0.0
  0
LINE
  5
AE
100
AcDbEntity
  8
1
  6
SOLID
 62
        7
100
AcDbLine
 10
116.882232666
 20
505.721984863
 30
0.0
 11
100.882232666
 21
508.388397217
 31
0.0
  0
LINE
  5
AF
100
AcDbEntity
  8
1
  6
SOLID
 62
        7
100
AcDbLine
 10
100.882232666
 20
508.388397217
 30
0.0
 11
100.882232666
 21
503.05557251
 31
0.0
  0
TEXT
  5
B0
100
AcDbEntity
  8
1
  6
SOLID
 62
        7
100
AcDbText
 10
-1.915305614
 20
513.721984863
 30
0.0
 40
16.0
  1
200
 72
        5
 11
35.6797719
 21
513.721984863
 31
0.0
100
AcDbText
  0
ENDBLK
  5
B1
100
AcDbEntity
  8
0
100
AcDbBlockEnd
  0
BLOCK
  5
B5
100
AcDbEntity
  8
0
100
AcDbBlockBegin
  2
*D4
 70
        0
 10
0.0
 20
0.0
 30
0.0
  3
*D4
  1

  0
LINE
  5
B6
100
AcDbEntity
  8
1
  6
SOLID
 62
        7
100
AcDbLine
 10
-53.117767334
 20
569.714355469
 30
0.0
 11
-53.117767334
 21
536.397644043
 31
0.0
  0
LINE
  5
B7
100
AcDbEntity
  8
1
  6
SOLID
 62
        7
100
AcDbLine
 10
86.882232666
 20
569.714355469
 30
0.0
 11
86.882232666
 21
536.397644043
 31
0.0
  0
LINE
  5
B8
100
AcDbEntity
  8
1
  6
SOLID
 62
        7
100
AcDbLine
 10
-53.117767334
 20
540.721984863
 30
0.0
 11
86.882232666
 21
540.721984863
 31
0.0
  0
LINE
  5
B9
100
AcDbEntity
  8
1
  6
SOLID
 62
        7
100
AcDbLine
 10
-37.117767334
 20
543.388366699
 30
0.0
 11
-53.117767334
 21
540.721984863
 31
0.0
  0
LINE
  5
BA
100
AcDbEntity
  8
1
  6
SOLID
 62
        7
100
AcDbLine
 10
-53.117767334
 20
540.721984863
 30
0.0
 11
-37.117767334
 21
538.055603027
 31
0.0
  0
LINE
  5
BB
100
AcDbEntity
  8
1
  6
SOLID
 62
        7
100
AcDbLine
 10
-37.117767334
 20
538.055603027
 30
0.0
 11
-37.117767334
 21
543.388366699
 31
0.0
  0
LINE
  5
BC
100
AcDbEntity
  8
1
  6
SOLID
 62
        7
100
AcDbLine
 10
86.882232666
 20
540.721984863
 30
0.0
 11
-53.117767334
 21
540.721984863
 31
0.0
  0
LINE
  5
BD
100
AcDbEntity
  8
1
  6
SOLID
 62
        7
100
AcDbLine
 10
70.882232666
 20
538.055603027
 30
0.0
 11
86.882232666
 21
540.721984863
 31
0.0
  0
LINE
  5
BE
100
AcDbEntity
  8
1
  6
SOLID
 62
        7
100
AcDbLine
 10
86.882232666
 20
540.721984863
 30
0.0
 11
70.882232666
 21
543.388366699
 31
0.0
  0
LINE
  5
BF
100
AcDbEntity
  8
1
  6
SOLID
 62
        7
100
AcDbLine
 10
70.882232666
 20
543.388366699
 30
0.0
 11
70.882232666
 21
538.055603027
 31
0.0
  0
TEXT
  5
C0
100
AcDbEntity
  8
1
  6
SOLID
 62
        7
100
AcDbText
 10
-1.915305614
 20
548.721984863
 30
0.0
 40
16.0
  1
140
 72
        5
 11
35.6797719
 21
548.721984863
 31
0.0
100
AcDbText
  0
ENDBLK
  5
C1
100
AcDbEntity
  8
0
100
AcDbBlockEnd
  0
BLOCK
  5
C5
100
AcDbEntity
  8
0
100
AcDbBlockBegin
  2
*D5
 70
        0
 10
0.0
 20
0.0
 30
0.0
  3
*D5
  1

  0
LINE
  5
C6
100
AcDbEntity
  8
1
  6
SOLID
 62
        7
100
AcDbLine
 10
145.882232666
 20
574.038696289
 30
0.0
 11
94.154693604
 21
574.038696289
 31
0.0
  0
LINE
  5
C7
100
AcDbEntity
  8
1
  6
SOLID
 62
        7
100
AcDbLine
 10
136.885162354
 20
614.038696289
 30
0.0
 11
94.154693604
 21
614.038696289
 31
0.0
  0
LINE
  5
C8
100
AcDbEntity
  8
1
  6
SOLID
 62
        7
100
AcDbLine
 10
95.154693604
 20
574.038696289
 30
0.0
 11
95.154693604
 21
614.038696289
 31
0.0
  0
LINE
  5
C9
100
AcDbEntity
  8
1
  6
SOLID
 62
        7
100
AcDbLine
 10
94.538085938
 20
577.738708496
 30
0.0
 11
95.154693604
 21
574.038696289
 31
0.0
  0
LINE
  5
CA
100
AcDbEntity
  8
1
  6
SOLID
 62
        7
100
AcDbLine
 10
95.154693604
 20
574.038696289
 30
0.0
 11
95.77130127
 21
577.738708496
 31
0.0
  0
LINE
  5
CB
100
AcDbEntity
  8
1
  6
SOLID
 62
        7
100
AcDbLine
 10
95.77130127
 20
577.738708496
 30
0.0
 11
94.538085938
 21
577.738708496
 31
0.0
  0
LINE
  5
CC
100
AcDbEntity
  8
1
  6
SOLID
 62
        7
100
AcDbLine
 10
95.154693604
 20
614.038696289
 30
0.0
 11
95.154693604
 21
574.038696289
 31
0.0
  0
LINE
  5
CD
100
AcDbEntity
  8
1
  6
SOLID
 62
        7
100
AcDbLine
 10
95.77130127
 20
610.338684082
 30
0.0
 11
95.154693604
 21
614.038696289
 31
0.0
  0
LINE
  5
CE
100
AcDbEntity
  8
1
  6
SOLID
 62
        7
100
AcDbLine
 10
95.154693604
 20
614.038696289
 30
0.0
 11
94.538085938
 21
610.338684082
 31
0.0
  0
LINE
  5
CF
100
AcDbEntity
  8
1
  6
SOLID
 62
        7
100
AcDbLine
 10
94.538085938
 20
610.338684082
 30
0.0
 11
95.77130127
 21
610.338684082
 31
0.0
  0
TEXT
  5
D0
100
AcDbEntity
  8
1
  6
SOLID
 62
        7
100
AcDbText
 10
93.304695129
 20
591.325744629
 30
0.0
 40
3.700000048
  1
40
 50
90.000002504
 72
        5
 11
93.304694892
 21
596.751652241
 31
0.0
100
AcDbText
  0
ENDBLK
  5
D1
100
AcDbEntity
  8
0
100
AcDbBlockEnd
  0
BLOCK
  5
D8
100
AcDbEntity
  8
0
100
AcDbBlockBegin
  2
*D6
 70
        0
 10
0.0
 20
0.0
 30
0.0
  3
*D6
  1

  0
LINE
  5
D9
100
AcDbEntity
  8
1
  6
SOLID
 62
        7
100
AcDbLine
 10
-115.403236389
 20
574.038818359
 30
0.0
 11
-159.519943237
 21
574.038818359
 31
0.0
  0
LINE
  5
DA
100
AcDbEntity
  8
1
  6
SOLID
 62
        7
100
AcDbLine
 10
-142.903244019
 20
620.038818359
 30
0.0
 11
-159.519943237
 21
620.038818359
 31
0.0
  0
LINE
  5
DB
100
AcDbEntity
  8
1
  6
SOLID
 62
        7
100
AcDbLine
 10
-157.234222412
 20
574.038818359
 30
0.0
 11
-157.234222412
 21
550.038818359
 31
0.0
  0
LINE
  5
DC
100
AcDbEntity
  8
1
  6
SOLID
 62
        7
100
AcDbLine
 10
-157.234222412
 20
550.038818359
 30
0.0
 11
-157.234222412
 21
644.038818359
 31
0.0
  0
LINE
  5
DD
100
AcDbEntity
  8
1
  6
SOLID
 62
        7
100
AcDbLine
 10
-154.567825317
 20
558.038818359
 30
0.0
 11
-157.234222412
 21
574.038818359
 31
0.0
  0
LINE
  5
DE
100
AcDbEntity
  8
1
  6
SOLID
 62
        7
100
AcDbLine
 10
-157.234222412
 20
574.038818359
 30
0.0
 11
-159.900619507
 21
558.038818359
 31
0.0
  0
LINE
  5
DF
100
AcDbEntity
  8
1
  6
SOLID
 62
        7
100
AcDbLine
 10
-159.900619507
 20
558.038818359
 30
0.0
 11
-154.567825317
 21
558.038818359
 31
0.0
  0
LINE
  5
E0
100
AcDbEntity
  8
1
  6
SOLID
 62
        7
100
AcDbLine
 10
-157.234222412
 20
620.038818359
 30
0.0
 11
-157.234222412
 21
644.038818359
 31
0.0
  0
LINE
  5
E1
100
AcDbEntity
  8
1
  6
SOLID
 62
        7
100
AcDbLine
 10
-157.234222412
 20
644.038818359
 30
0.0
 11
-157.234222412
 21
550.038818359
 31
0.0
  0
LINE
  5
E2
100
AcDbEntity
  8
1
  6
SOLID
 62
        7
100
AcDbLine
 10
-159.900619507
 20
636.038818359
 30
0.0
 11
-157.234222412
 21
620.038818359
 31
0.0
  0
LINE
  5
E3
100
AcDbEntity
  8
1
  6
SOLID
 62
        7
100
AcDbLine
 10
-157.234222412
 20
620.038818359
 30
0.0
 11
-154.567825317
 21
636.038818359
 31
0.0
  0
LINE
  5
E4
100
AcDbEntity
  8
1
  6
SOLID
 62
        7
100
AcDbLine
 10
-154.567825317
 20
636.038818359
 30
0.0
 11
-159.900619507
 21
636.038818359
 31
0.0
  0
TEXT
  5
E5
100
AcDbEntity
  8
1
  6
SOLID
 62
        7
100
AcDbText
 10
-165.234222412
 20
584.640075684
 30
0.0
 40
16.0
  1
46
 50
90.000002504
 72
        5
 11
-165.234223496
 21
609.437614441
 31
0.0
100
AcDbText
  0
ENDBLK
  5
E6
100
AcDbEntity
  8
0
100
AcDbBlockEnd
  0
BLOCK
  5
EA
100
AcDbEntity
  8
0
100
AcDbBlockBegin
  2
*D7
 70
        0
 10
0.0
 20
0.0
 30
0.0
  3
*D7
  1

  0
LINE
  5
EB
100
AcDbEntity
  8
1
  6
SOLID
 62
        7
100
AcDbLine
 10
-142.903244019
 20
620.038818359
 30
0.0
 11
-159.519943237
 21
620.038818359
 31
0.0
  0
LINE
  5
EC
100
AcDbEntity
  8
1
  6
SOLID
 62
        7
100
AcDbLine
 10
-142.903244019
 20
900.038818359
 30
0.0
 11
-159.519943237
 21
900.038818359
 31
0.0
  0
LINE
  5
ED
100
AcDbEntity
  8
1
  6
SOLID
 62
        7
100
AcDbLine
 10
-157.234222412
 20
620.038818359
 30
0.0
 11
-157.234222412
 21
900.038818359
 31
0.0
  0
LINE
  5
EE
100
AcDbEntity
  8
1
  6
SOLID
 62
        7
100
AcDbLine
 10
-159.900619507
 20
636.038818359
 30
0.0
 11
-157.234222412
 21
620.038818359
 31
0.0
  0
LINE
  5
EF
100
AcDbEntity
  8
1
  6
SOLID
 62
        7
100
AcDbLine
 10
-157.234222412
 20
620.038818359
 30
0.0
 11
-154.567825317
 21
636.038818359
 31
0.0
  0
LINE
  5
F0
100
AcDbEntity
  8
1
  6
SOLID
 62
        7
100
AcDbLine
 10
-154.567825317
 20
636.038818359
 30
0.0
 11
-159.900619507
 21
636.038818359
 31
0.0
  0
LINE
  5
F1
100
AcDbEntity
  8
1
  6
SOLID
 62
        7
100
AcDbLine
 10
-157.234222412
 20
900.038818359
 30
0.0
 11
-157.234222412
 21
620.038818359
 31
0.0
  0
LINE
  5
F2
100
AcDbEntity
  8
1
  6
SOLID
 62
        7
100
AcDbLine
 10
-154.567825317
 20
884.038818359
 30
0.0
 11
-157.234222412
 21
900.038818359
 31
0.0
  0
LINE
  5
F3
100
AcDbEntity
  8
1
  6
SOLID
 62
        7
100
AcDbLine
 10
-157.234222412
 20
900.038818359
 30
0.0
 11
-159.900619507
 21
884.038818359
 31
0.0
  0
LINE
  5
F4
100
AcDbEntity
  8
1
  6
SOLID
 62
        7
100
AcDbLine
 10
-159.900619507
 20
884.038818359
 30
0.0
 11
-154.567825317
 21
884.038818359
 31
0.0
  0
TEXT
  5
F5
100
AcDbEntity
  8
1
  6
SOLID
 62
        7
100
AcDbText
 10
-165.234222412
 20
741.241271973
 30
0.0
 40
16.0
  1
280
 50
90.000002504
 72
        5
 11
-165.234224055
 21
778.836349487
 31
0.0
100
AcDbText
  0
ENDBLK
  5
F6
100
AcDbEntity
  8
0
100
AcDbBlockEnd
  0
BLOCK
  5
FA
100
AcDbEntity
  8
0
100
AcDbBlockBegin
  2
*D8
 70
        0
 10
0.0
 20
0.0
 30
0.0
  3
*D8
  1

  0
LINE
  5
FB
100
AcDbEntity
  8
1
  6
SOLID
 62
        7
100
AcDbLine
 10
-115.403236389
 20
574.038818359
 30
0.0
 11
-194.519943237
 21
574.038818359
 31
0.0
  0
LINE
  5
FC
100
AcDbEntity
  8
1
  6
SOLID
 62
        7
100
AcDbLine
 10
-142.903244019
 20
900.038818359
 30
0.0
 11
-194.519943237
 21
900.038818359
 31
0.0
  0
LINE
  5
FD
100
AcDbEntity
  8
1
  6
SOLID
 62
        7
100
AcDbLine
 10
-192.234222412
 20
574.038818359
 30
0.0
 11
-192.234222412
 21
900.038818359
 31
0.0
  0
LINE
  5
FE
100
AcDbEntity
  8
1
  6
SOLID
 62
        7
100
AcDbLine
 10
-194.900619507
 20
590.038818359
 30
0.0
 11
-192.234222412
 21
574.038818359
 31
0.0
  0
LINE
  5
FF
100
AcDbEntity
  8
1
  6
SOLID
 62
        7
100
AcDbLine
 10
-192.234222412
 20
574.038818359
 30
0.0
 11
-189.567825317
 21
590.038818359
 31
0.0
  0
LINE
  5
100
100
AcDbEntity
  8
1
  6
SOLID
 62
        7
100
AcDbLine
 10
-189.567825317
 20
590.038818359
 30
0.0
 11
-194.900619507
 21
590.038818359
 31
0.0
  0
LINE
  5
101
100
AcDbEntity
  8
1
  6
SOLID
 62
        7
100
AcDbLine
 10
-192.234222412
 20
900.038818359
 30
0.0
 11
-192.234222412
 21
574.038818359
 31
0.0
  0
LINE
  5
102
100
AcDbEntity
  8
1
  6
SOLID
 62
        7
100
AcDbLine
 10
-189.567825317
 20
884.038818359
 30
0.0
 11
-192.234222412
 21
900.038818359
 31
0.0
  0
LINE
  5
103
100
AcDbEntity
  8
1
  6
SOLID
 62
        7
100
AcDbLine
 10
-192.234222412
 20
900.038818359
 30
0.0
 11
-194.900619507
 21
884.038818359
 31
0.0
  0
LINE
  5
104
100
AcDbEntity
  8
1
  6
SOLID
 62
        7
100
AcDbLine
 10
-194.900619507
 20
884.038818359
 30
0.0
 11
-189.567825317
 21
884.038818359
 31
0.0
  0
TEXT
  5
105
100
AcDbEntity
  8
1
  6
SOLID
 62
        7
100
AcDbText
 10
-200.234222412
 20
717.57421875
 30
0.0
 40
16.0
  1
326
 50
90.000002504
 72
        5
 11
-200.234224114
 21
756.503448486
 31
0.0
100
AcDbText
  0
ENDBLK
  5
106
100
AcDbEntity
  8
0
100
AcDbBlockEnd
  0
BLOCK
  5
10A
100
AcDbEntity
  8
0
100
AcDbBlockBegin
  2
*D9
 70
        0
 10
0.0
 20
0.0
 30
0.0
  3
*D9
  1

  0
LINE
  5
10B
100
AcDbEntity
  8
1
  6
SOLID
 62
        7
100
AcDbLine
 10
-140.617523193
 20
617.753112793
 30
0.0
 11
-140.617523193
 21
433.436279297
 31
0.0
  0
LINE
  5
10C
100
AcDbEntity
  8
1
  6
SOLID
 62
        7
100
AcDbLine
 10
174.382476807
 20
617.753112793
 30
0.0
 11
174.382476807
 21
433.436279297
 31
0.0
  0
LINE
  5
10D
100
AcDbEntity
  8
1
  6
SOLID
 62
        7
100
AcDbLine
 10
-140.617523193
 20
435.721984863
 30
0.0
 11
174.382476807
 21
435.721984863
 31
0.0
  0
LINE
  5
10E
100
AcDbEntity
  8
1
  6
SOLID
 62
        7
100
AcDbLine
 10
-124.617523193
 20
438.388397217
 30
0.0
 11
-140.617523193
 21
435.721984863
 31
0.0
  0
LINE
  5
10F
100
AcDbEntity
  8
1
  6
SOLID
 62
        7
100
AcDbLine
 10
-140.617523193
 20
435.721984863
 30
0.0
 11
-124.617523193
 21
433.05557251
 31
0.0
  0
LINE
  5
110
100
AcDbEntity
  8
1
  6
SOLID
 62
        7
100
AcDbLine
 10
-124.617523193
 20
433.05557251
 30
0.0
 11
-124.617523193
 21
438.388397217
 31
0.0
  0
LINE
  5
111
100
AcDbEntity
  8
1
  6
SOLID
 62
        7
100
AcDbLine
 10
174.382476807
 20
435.721984863
 30
0.0
 11
-140.617523193
 21
435.721984863
 31
0.0
  0
LINE
  5
112
100
AcDbEntity
  8
1
  6
SOLID
 62
        7
100
AcDbLine
 10
158.382476807
 20
433.05557251
 30
0.0
 11
174.382476807
 21
435.721984863
 31
0.0
  0
LINE
  5
113
100
AcDbEntity
  8
1
  6
SOLID
 62
        7
100
AcDbLine
 10
174.382476807
 20
435.721984863
 30
0.0
 11
158.382476807
 21
438.388397217
 31
0.0
  0
LINE
  5
114
100
AcDbEntity
  8
1
  6
SOLID
 62
        7
100
AcDbLine
 10
158.382476807
 20
438.388397217
 30
0.0
 11
158.382476807
 21
433.05557251
 31
0.0
  0
TEXT
  5
115
100
AcDbEntity
  8
1
  6
SOLID
 62
        7
100
AcDbText
 10
-1.915061474
 20
443.721984863
 30
0.0
 40
16.0
  1
320
 72
        5
 11
35.680016041
 21
443.721984863
 31
0.0
100
AcDbText
  0
ENDBLK
  5
116
100
AcDbEntity
  8
0
100
AcDbBlockEnd
  0
BLOCK
  5
1E0
100
AcDbEntity
  8
0
100
AcDbBlockBegin
  2
*D10
 70
        0
 10
0.0
 20
0.0
 30
0.0
  3
*D10
  1

  0
LINE
  5
1E1
100
AcDbEntity
  8
1
  6
SOLID
 62
        7
100
AcDbLine
 10
-1051.775268555
 20
806.63494873
 30
0.0
 11
-1051.775268555
 21
1048.923461914
 31
0.0
  0
LINE
  5
1E2
100
AcDbEntity
  8
1
  6
SOLID
 62
        7
100
AcDbLine
 10
-360.85458374
 20
878.324401855
 30
0.0
 11
-360.854614258
 21
1048.923461914
 31
0.0
  0
LINE
  5
1E3
100
AcDbEntity
  8
1
  6
SOLID
 62
        7
100
AcDbLine
 10
-1051.775268555
 20
1046.637695313
 30
0.0
 11
-360.854614258
 21
1046.637695313
 31
0.0
  0
LINE
  5
1E4
100
AcDbEntity
  8
1
  6
SOLID
 62
        7
100
AcDbLine
 10
-1035.775268555
 20
1049.304077148
 30
0.0
 11
-1051.775268555
 21
1046.637695313
 31
0.0
  0
LINE
  5
1E5
100
AcDbEntity
  8
1
  6
SOLID
 62
        7
100
AcDbLine
 10
-1051.775268555
 20
1046.637695313
 30
0.0
 11
-1035.775268555
 21
1043.971313477
 31
0.0
  0
LINE
  5
1E6
100
AcDbEntity
  8
1
  6
SOLID
 62
        7
100
AcDbLine
 10
-1035.775268555
 20
1043.971313477
 30
0.0
 11
-1035.775268555
 21
1049.304077148
 31
0.0
  0
LINE
  5
1E7
100
AcDbEntity
  8
1
  6
SOLID
 62
        7
100
AcDbLine
 10
-360.854614258
 20
1046.637695313
 30
0.0
 11
-1051.775268555
 21
1046.637695313
 31
0.0
  0
LINE
  5
1E8
100
AcDbEntity
  8
1
  6
SOLID
 62
        7
100
AcDbLine
 10
-376.854614258
 20
1043.971313477
 30
0.0
 11
-360.854614258
 21
1046.637695313
 31
0.0
  0
LINE
  5
1E9
100
AcDbEntity
  8
1
  6
SOLID
 62
        7
100
AcDbLine
 10
-360.854614258
 20
1046.637695313
 30
0.0
 11
-376.854614258
 21
1049.304077148
 31
0.0
  0
LINE
  5
1EA
100
AcDbEntity
  8
1
  6
SOLID
 62
        7
100
AcDbLine
 10
-376.854614258
 20
1049.304077148
 30
0.0
 11
-376.854614258
 21
1043.971313477
 31
0.0
  0
TEXT
  5
1EB
100
AcDbEntity
  8
1
  6
SOLID
 62
        7
100
AcDbText
 10
-725.112365723
 20
1054.637695313
 30
0.0
 40
16.0
  1
695
 72
        5
 11
-687.517288208
 21
1054.637695313
 31
0.0
100
AcDbText
  0
ENDBLK
  5
1EC
100
AcDbEntity
  8
0
100
AcDbBlockEnd
  0
BLOCK
  5
267
100
AcDbEntity
  8
0
100
AcDbBlockBegin
  2
*D11
 70
        0
 10
0.0
 20
0.0
 30
0.0
  3
*D11
  1

  0
LINE
  5
268
100
AcDbEntity
  8
1
  6
SOLID
 62
        7
100
AcDbLine
 10
-921.140563965
 20
574.038696289
 30
0.0
 11
-1070.863769531
 21
574.038696289
 31
0.0
  0
LINE
  5
269
100
AcDbEntity
  8
1
  6
SOLID
 62
        7
100
AcDbLine
 10
-1033.616210938
 20
754.038696289
 30
0.0
 11
-1070.863769531
 21
754.038696289
 31
0.0
  0
LINE
  5
26A
100
AcDbEntity
  8
1
  6
SOLID
 62
        7
100
AcDbLine
 10
-1068.57800293
 20
574.038696289
 30
0.0
 11
-1068.57800293
 21
754.038696289
 31
0.0
  0
LINE
  5
26B
100
AcDbEntity
  8
1
  6
SOLID
 62
        7
100
AcDbLine
 10
-1071.244384766
 20
590.038696289
 30
0.0
 11
-1068.57800293
 21
574.038696289
 31
0.0
  0
LINE
  5
26C
100
AcDbEntity
  8
1
  6
SOLID
 62
        7
100
AcDbLine
 10
-1068.57800293
 20
574.038696289
 30
0.0
 11
-1065.911621094
 21
590.038696289
 31
0.0
  0
LINE
  5
26D
100
AcDbEntity
  8
1
  6
SOLID
 62
        7
100
AcDbLine
 10
-1065.911621094
 20
590.038696289
 30
0.0
 11
-1071.244384766
 21
590.038696289
 31
0.0
  0
LINE
  5
26E
100
AcDbEntity
  8
1
  6
SOLID
 62
        7
100
AcDbLine
 10
-1068.57800293
 20
754.038696289
 30
0.0
 11
-1068.57800293
 21
574.038696289
 31
0.0
  0
LINE
  5
26F
100
AcDbEntity
  8
1
  6
SOLID
 62
        7
100
AcDbLine
 10
-1065.911621094
 20
738.038696289
 30
0.0
 11
-1068.57800293
 21
754.038696289
 31
0.0
  0
LINE
  5
270
100
AcDbEntity
  8
1
  6
SOLID
 62
        7
100
AcDbLine
 10
-1068.57800293
 20
754.038696289
 30
0.0
 11
-1071.244384766
 21
738.038696289
 31
0.0
  0
LINE
  5
271
100
AcDbEntity
  8
1
  6
SOLID
 62
        7
100
AcDbLine
 10
-1071.244384766
 20
738.038696289
 30
0.0
 11
-1065.911621094
 21
738.038696289
 31
0.0
  0
TEXT
  5
272
100
AcDbEntity
  8
1
  6
SOLID
 62
        7
100
AcDbText
 10
-1076.57800293
 20
645.241149902
 30
0.0
 40
16.0
  1
180
 50
90.000002504
 72
        5
 11
-1076.578004573
 21
682.836227417
 31
0.0
100
AcDbText
  0
ENDBLK
  5
273
100
AcDbEntity
  8
0
100
AcDbBlockEnd
  0
BLOCK
  5
2E5
100
AcDbEntity
  8
0
100
AcDbBlockBegin
  2
*D12
 70
        0
 10
0.0
 20
0.0
 30
0.0
  3
*D12
  1

  0
LINE
  5
2E6
100
AcDbEntity
  8
1
  6
SOLID
 62
        7
100
AcDbLine
 10
-896.854858398
 20
564.883117676
 30
0.0
 11
-896.854858398
 21
515.413391113
 31
0.0
  0
LINE
  5
2E7
100
AcDbEntity
  8
1
  6
SOLID
 62
        7
100
AcDbLine
 10
-516.854858398
 20
571.752990723
 30
0.0
 11
-516.854858398
 21
515.413391113
 31
0.0
  0
LINE
  5
2E8
100
AcDbEntity
  8
1
  6
SOLID
 62
        7
100
AcDbLine
 10
-896.854858398
 20
517.69909668
 30
0.0
 11
-516.854858398
 21
517.69909668
 31
0.0
  0
LINE
  5
2E9
100
AcDbEntity
  8
1
  6
SOLID
 62
        7
100
AcDbLine
 10
-880.854858398
 20
520.365478516
 30
0.0
 11
-896.854858398
 21
517.69909668
 31
0.0
  0
LINE
  5
2EA
100
AcDbEntity
  8
1
  6
SOLID
 62
        7
100
AcDbLine
 10
-896.854858398
 20
517.69909668
 30
0.0
 11
-880.854858398
 21
515.032714844
 31
0.0
  0
LINE
  5
2EB
100
AcDbEntity
  8
1
  6
SOLID
 62
        7
100
AcDbLine
 10
-880.854858398
 20
515.032714844
 30
0.0
 11
-880.854858398
 21
520.365478516
 31
0.0
  0
LINE
  5
2EC
100
AcDbEntity
  8
1
  6
SOLID
 62
        7
100
AcDbLine
 10
-516.854858398
 20
517.69909668
 30
0.0
 11
-896.854858398
 21
517.69909668
 31
0.0
  0
LINE
  5
2ED
100
AcDbEntity
  8
1
  6
SOLID
 62
        7
100
AcDbLine
 10
-532.854858398
 20
515.032714844
 30
0.0
 11
-516.854858398
 21
517.69909668
 31
0.0
  0
LINE
  5
2EE
100
AcDbEntity
  8
1
  6
SOLID
 62
        7
100
AcDbLine
 10
-516.854858398
 20
517.69909668
 30
0.0
 11
-532.854858398
 21
520.365478516
 31
0.0
  0
LINE
  5
2EF
100
AcDbEntity
  8
1
  6
SOLID
 62
        7
100
AcDbLine
 10
-532.854858398
 20
520.365478516
 30
0.0
 11
-532.854858398
 21
515.032714844
 31
0.0
  0
TEXT
  5
2F0
100
AcDbEntity
  8
1
  6
SOLID
 62
        7
100
AcDbText
 10
-725.652404785
 20
525.69909668
 30
0.0
 40
16.0
  1
380
 72
        5
 11
-688.057327271
 21
525.69909668
 31
0.0
100
AcDbText
  0
ENDBLK
  5
2F1
100
AcDbEntity
  8
0
100
AcDbBlockEnd
  0
BLOCK
  5
2F9
100
AcDbEntity
  8
0
100
AcDbBlockBegin
  2
*D13
 70
        0
 10
0.0
 20
0.0
 30
0.0
  3
*D13
  1

  0
LINE
  5
2FA
100
AcDbEntity
  8
1
  6
SOLID
 62
        7
100
AcDbLine
 10
-921.140563965
 20
574.038696289
 30
0.0
 11
-1105.863769531
 21
574.038696289
 31
0.0
  0
LINE
  5
2FB
100
AcDbEntity
  8
1
  6
SOLID
 62
        7
100
AcDbLine
 10
-916.140563965
 20
1019.038574219
 30
0.0
 11
-1105.863769531
 21
1019.038574219
 31
0.0
  0
LINE
  5
2FC
100
AcDbEntity
  8
1
  6
SOLID
 62
        7
100
AcDbLine
 10
-1103.57800293
 20
574.038696289
 30
0.0
 11
-1103.57800293
 21
1019.038574219
 31
0.0
  0
LINE
  5
2FD
100
AcDbEntity
  8
1
  6
SOLID
 62
        7
100
AcDbLine
 10
-1106.244384766
 20
590.038696289
 30
0.0
 11
-1103.57800293
 21
574.038696289
 31
0.0
  0
LINE
  5
2FE
100
AcDbEntity
  8
1
  6
SOLID
 62
        7
100
AcDbLine
 10
-1103.57800293
 20
574.038696289
 30
0.0
 11
-1100.911621094
 21
590.038696289
 31
0.0
  0
LINE
  5
2FF
100
AcDbEntity
  8
1
  6
SOLID
 62
        7
100
AcDbLine
 10
-1100.911621094
 20
590.038696289
 30
0.0
 11
-1106.244384766
 21
590.038696289
 31
0.0
  0
LINE
  5
300
100
AcDbEntity
  8
1
  6
SOLID
 62
        7
100
AcDbLine
 10
-1103.57800293
 20
1019.038574219
 30
0.0
 11
-1103.57800293
 21
574.038696289
 31
0.0
  0
LINE
  5
301
100
AcDbEntity
  8
1
  6
SOLID
 62
        7
100
AcDbLine
 10
-1100.911621094
 20
1003.038574219
 30
0.0
 11
-1103.57800293
 21
1019.038574219
 31
0.0
  0
LINE
  5
302
100
AcDbEntity
  8
1
  6
SOLID
 62
        7
100
AcDbLine
 10
-1103.57800293
 20
1019.038574219
 30
0.0
 11
-1106.244384766
 21
1003.038574219
 31
0.0
  0
LINE
  5
303
100
AcDbEntity
  8
1
  6
SOLID
 62
        7
100
AcDbLine
 10
-1106.244384766
 20
1003.038574219
 30
0.0
 11
-1100.911621094
 21
1003.038574219
 31
0.0
  0
TEXT
  5
304
100
AcDbEntity
  8
1
  6
SOLID
 62
        7
100
AcDbText
 10
-1111.57800293
 20
777.741027832
 30
0.0
 40
16.0
  1
445
 50
90.000002504
 72
        5
 11
-1111.578004573
 21
815.336105347
 31
0.0
100
AcDbText
  0
ENDBLK
  5
305
100
AcDbEntity
  8
0
100
AcDbBlockEnd
  0
BLOCK
  5
30C
100
AcDbEntity
  8
0
100
AcDbBlockBegin
  2
*D14
 70
        0
 10
0.0
 20
0.0
 30
0.0
  3
*D14
  1

  0
LINE
  5
30D
100
AcDbEntity
  8
1
  6
SOLID
 62
        7
100
AcDbLine
 10
-420.85458374
 20
731.233215332
 30
0.0
 11
-420.85458374
 21
515.613342285
 31
0.0
  0
LINE
  5
30E
100
AcDbEntity
  8
1
  6
SOLID
 62
        7
100
AcDbLine
 10
-360.85458374
 20
629.752990723
 30
0.0
 11
-360.85458374
 21
515.613342285
 31
0.0
  0
LINE
  5
30F
100
AcDbEntity
  8
1
  6
SOLID
 62
        7
100
AcDbLine
 10
-420.85458374
 20
517.899047852
 30
0.0
 11
-360.85458374
 21
517.899047852
 31
0.0
  0
LINE
  5
310
100
AcDbEntity
  8
1
  6
SOLID
 62
        7
100
AcDbLine
 10
-404.85458374
 20
520.565429688
 30
0.0
 11
-420.85458374
 21
517.899047852
 31
0.0
  0
LINE
  5
311
100
AcDbEntity
  8
1
  6
SOLID
 62
        7
100
AcDbLine
 10
-420.85458374
 20
517.899047852
 30
0.0
 11
-404.85458374
 21
515.232666016
 31
0.0
  0
LINE
  5
312
100
AcDbEntity
  8
1
  6
SOLID
 62
        7
100
AcDbLine
 10
-404.85458374
 20
515.232666016
 30
0.0
 11
-404.85458374
 21
520.565429688
 31
0.0
  0
LINE
  5
313
100
AcDbEntity
  8
1
  6
SOLID
 62
        7
100
AcDbLine
 10
-360.85458374
 20
517.899047852
 30
0.0
 11
-420.85458374
 21
517.899047852
 31
0.0
  0
LINE
  5
314
100
AcDbEntity
  8
1
  6
SOLID
 62
        7
100
AcDbLine
 10
-376.85458374
 20
515.232666016
 30
0.0
 11
-360.85458374
 21
517.899047852
 31
0.0
  0
LINE
  5
315
100
AcDbEntity
  8
1
  6
SOLID
 62
        7
100
AcDbLine
 10
-360.85458374
 20
517.899047852
 30
0.0
 11
-376.85458374
 21
520.565429688
 31
0.0
  0
LINE
  5
316
100
AcDbEntity
  8
1
  6
SOLID
 62
        7
100
AcDbLine
 10
-376.85458374
 20
520.565429688
 30
0.0
 11
-376.85458374
 21
515.232666016
 31
0.0
  0
TEXT
  5
317
100
AcDbEntity
  8
1
  6
SOLID
 62
        7
100
AcDbText
 10
-402.586273193
 20
525.899047852
 30
0.0
 40
16.0
  1
60
 72
        5
 11
-379.122888565
 21
525.899047852
 31
0.0
100
AcDbText
  0
ENDBLK
  5
318
100
AcDbEntity
  8
0
100
AcDbBlockEnd
  0
BLOCK
  5
31E
100
AcDbEntity
  8
0
100
AcDbBlockBegin
  2
*D15
 70
        0
 10
0.0
 20
0.0
 30
0.0
  3
*D15
  1

  0
LINE
  5
31F
100
AcDbEntity
  8
1
  6
SOLID
 62
        7
100
AcDbLine
 10
-358.568878174
 20
632.038696289
 30
0.0
 11
-308.720977783
 21
632.038696289
 31
0.0
  0
LINE
  5
320
100
AcDbEntity
  8
1
  6
SOLID
 62
        7
100
AcDbLine
 10
-358.568878174
 20
876.038696289
 30
0.0
 11
-308.720977783
 21
876.038696289
 31
0.0
  0
LINE
  5
321
100
AcDbEntity
  8
1
  6
SOLID
 62
        7
100
AcDbLine
 10
-311.00668335
 20
632.038696289
 30
0.0
 11
-311.00668335
 21
876.038696289
 31
0.0
  0
LINE
  5
322
100
AcDbEntity
  8
1
  6
SOLID
 62
        7
100
AcDbLine
 10
-313.673095703
 20
648.038696289
 30
0.0
 11
-311.00668335
 21
632.038696289
 31
0.0
  0
LINE
  5
323
100
AcDbEntity
  8
1
  6
SOLID
 62
        7
100
AcDbLine
 10
-311.00668335
 20
632.038696289
 30
0.0
 11
-308.340270996
 21
648.038696289
 31
0.0
  0
LINE
  5
324
100
AcDbEntity
  8
1
  6
SOLID
 62
        7
100
AcDbLine
 10
-308.340270996
 20
648.038696289
 30
0.0
 11
-313.673095703
 21
648.038696289
 31
0.0
  0
LINE
  5
325
100
AcDbEntity
  8
1
  6
SOLID
 62
        7
100
AcDbLine
 10
-311.00668335
 20
876.038696289
 30
0.0
 11
-311.00668335
 21
632.038696289
 31
0.0
  0
LINE
  5
326
100
AcDbEntity
  8
1
  6
SOLID
 62
        7
100
AcDbLine
 10
-308.340270996
 20
860.038696289
 30
0.0
 11
-311.00668335
 21
876.038696289
 31
0.0
  0
LINE
  5
327
100
AcDbEntity
  8
1
  6
SOLID
 62
        7
100
AcDbLine
 10
-311.00668335
 20
876.038696289
 30
0.0
 11
-313.673095703
 21
860.038696289
 31
0.0
  0
LINE
  5
328
100
AcDbEntity
  8
1
  6
SOLID
 62
        7
100
AcDbLine
 10
-313.673095703
 20
860.038696289
 30
0.0
 11
-308.340270996
 21
860.038696289
 31
0.0
  0
TEXT
  5
329
100
AcDbEntity
  8
1
  6
SOLID
 62
        7
100
AcDbText
 10
-319.00668335
 20
671.647705078
 30
0.0
 40
16.0
  1
%%c
 50
90.000002504
 72
        5
 11
-319.006683816
 21
682.313550949
 31
0.0
100
AcDbText
  0
TEXT
  5
32A
100
AcDbEntity
  8
1
  6
SOLID
 62
        7
100
AcDbText
 10
-319.00668335
 20
690.580993652
 30
0.0
 40
16.0
  1
210/240/320
 50
90.000002504
 72
        5
 11
-319.006689935
 21
841.229614258
 31
0.0
100
AcDbText
  0
ENDBLK
  5
32B
100
AcDbEntity
  8
0
100
AcDbBlockEnd
  0
BLOCK
  5
368
100
AcDbEntity
  8
0
100
AcDbBlockBegin
  2
*D16
 70
        0
 10
0.0
 20
0.0
 30
0.0
  3
*D16
  1

  0
LINE
  5
369
100
AcDbEntity
  8
1
  6
SOLID
 62
        7
100
AcDbLine
 10
-543.854858398
 20
571.752990723
 30
0.0
 11
-543.854858398
 21
542.738891602
 31
0.0
  0
LINE
  5
36A
100
AcDbEntity
  8
1
  6
SOLID
 62
        7
100
AcDbLine
 10
-493.854827881
 20
571.752990723
 30
0.0
 11
-493.854827881
 21
542.738891602
 31
0.0
  0
LINE
  5
36B
100
AcDbEntity
  8
1
  6
SOLID
 62
        7
100
AcDbLine
 10
-543.854858398
 20
545.024597168
 30
0.0
 11
-493.854827881
 21
545.024597168
 31
0.0
  0
LINE
  5
36C
100
AcDbEntity
  8
1
  6
SOLID
 62
        7
100
AcDbLine
 10
-493.854827881
 20
545.024597168
 30
0.0
 11
-595.701782227
 21
545.024597168
 31
0.0
  0
LINE
  5
36D
100
AcDbEntity
  8
1
  6
SOLID
 62
        7
100
AcDbLine
 10
-527.854858398
 20
547.690979004
 30
0.0
 11
-543.854858398
 21
545.024597168
 31
0.0
  0
LINE
  5
36E
100
AcDbEntity
  8
1
  6
SOLID
 62
        7
100
AcDbLine
 10
-543.854858398
 20
545.024597168
 30
0.0
 11
-527.854858398
 21
542.358215332
 31
0.0
  0
LINE
  5
36F
100
AcDbEntity
  8
1
  6
SOLID
 62
        7
100
AcDbLine
 10
-527.854858398
 20
542.358215332
 30
0.0
 11
-527.854858398
 21
547.690979004
 31
0.0
  0
LINE
  5
370
100
AcDbEntity
  8
1
  6
SOLID
 62
        7
100
AcDbLine
 10
-493.854827881
 20
545.024597168
 30
0.0
 11
-595.701782227
 21
545.024597168
 31
0.0
  0
LINE
  5
371
100
AcDbEntity
  8
1
  6
SOLID
 62
        7
100
AcDbLine
 10
-509.854827881
 20
542.358215332
 30
0.0
 11
-493.854827881
 21
545.024597168
 31
0.0
  0
LINE
  5
372
100
AcDbEntity
  8
1
  6
SOLID
 62
        7
100
AcDbLine
 10
-493.854827881
 20
545.024597168
 30
0.0
 11
-509.854827881
 21
547.690979004
 31
0.0
  0
LINE
  5
373
100
AcDbEntity
  8
1
  6
SOLID
 62
        7
100
AcDbLine
 10
-509.854827881
 20
547.690979004
 30
0.0
 11
-509.854827881
 21
542.358215332
 31
0.0
  0
TEXT
  5
374
100
AcDbEntity
  8
1
  6
SOLID
 62
        7
100
AcDbText
 10
-588.635131836
 20
553.024597168
 30
0.0
 40
16.0
  1
50
 72
        5
 11
-565.171747208
 21
553.024597168
 31
0.0
100
AcDbText
  0
ENDBLK
  5
375
100
AcDbEntity
  8
0
100
AcDbBlockEnd
  0
BLOCK
  5
37B
100
AcDbEntity
  8
0
100
AcDbBlockBegin
  2
*D17
 70
        0
 10
0.0
 20
0.0
 30
0.0
  3
*D17
  1

  0
LINE
  5
37C
100
AcDbEntity
  8
1
  6
SOLID
 62
        7
100
AcDbLine
 10
-918.854858398
 20
571.752990723
 30
0.0
 11
-918.854858398
 21
541.506286621
 31
0.0
  0
LINE
  5
37D
100
AcDbEntity
  8
1
  6
SOLID
 62
        7
100
AcDbLine
 10
-868.854858398
 20
571.752990723
 30
0.0
 11
-868.854858398
 21
541.506286621
 31
0.0
  0
LINE
  5
37E
100
AcDbEntity
  8
1
  6
SOLID
 62
        7
100
AcDbLine
 10
-918.854858398
 20
543.791992188
 30
0.0
 11
-817.702026367
 21
543.791992188
 31
0.0
  0
LINE
  5
37F
100
AcDbEntity
  8
1
  6
SOLID
 62
        7
100
AcDbLine
 10
-902.854858398
 20
546.458374023
 30
0.0
 11
-918.854858398
 21
543.791992188
 31
0.0
  0
LINE
  5
380
100
AcDbEntity
  8
1
  6
SOLID
 62
        7
100
AcDbLine
 10
-918.854858398
 20
543.791992188
 30
0.0
 11
-902.854858398
 21
541.125610352
 31
0.0
  0
LINE
  5
381
100
AcDbEntity
  8
1
  6
SOLID
 62
        7
100
AcDbLine
 10
-902.854858398
 20
541.125610352
 30
0.0
 11
-902.854858398
 21
546.458374023
 31
0.0
  0
LINE
  5
382
100
AcDbEntity
  8
1
  6
SOLID
 62
        7
100
AcDbLine
 10
-868.854858398
 20
543.791992188
 30
0.0
 11
-918.854858398
 21
543.791992188
 31
0.0
  0
LINE
  5
383
100
AcDbEntity
  8
1
  6
SOLID
 62
        7
100
AcDbLine
 10
-918.854858398
 20
543.791992188
 30
0.0
 11
-817.702026367
 21
543.791992188
 31
0.0
  0
LINE
  5
384
100
AcDbEntity
  8
1
  6
SOLID
 62
        7
100
AcDbLine
 10
-884.854858398
 20
541.125610352
 30
0.0
 11
-868.854858398
 21
543.791992188
 31
0.0
  0
LINE
  5
385
100
AcDbEntity
  8
1
  6
SOLID
 62
        7
100
AcDbLine
 10
-868.854858398
 20
543.791992188
 30
0.0
 11
-884.854858398
 21
546.458374023
 31
0.0
  0
LINE
  5
386
100
AcDbEntity
  8
1
  6
SOLID
 62
        7
100
AcDbLine
 10
-884.854858398
 20
546.458374023
 30
0.0
 11
-884.854858398
 21
541.125610352
 31
0.0
  0
TEXT
  5
387
100
AcDbEntity
  8
1
  6
SOLID
 62
        7
100
AcDbText
 10
-848.232055664
 20
551.791992188
 30
0.0
 40
16.0
  1
50
 72
        5
 11
-824.768671036
 21
551.791992188
 31
0.0
100
AcDbText
  0
ENDBLK
  5
388
100
AcDbEntity
  8
0
100
AcDbBlockEnd
  0
BLOCK
  5
3F7
100
AcDbEntity
  8
0
100
AcDbBlockBegin
  2
*D18
 70
        0
 10
0.0
 20
0.0
 30
0.0
  3
*D18
  1

  0
LINE
  5
3F8
100
AcDbEntity
  8
1
  6
SOLID
 62
        7
100
AcDbLine
 10
-480.85458374
 20
878.324401855
 30
0.0
 11
-480.85458374
 21
926.272277832
 31
0.0
  0
LINE
  5
3F9
100
AcDbEntity
  8
1
  6
SOLID
 62
        7
100
AcDbLine
 10
-360.85458374
 20
878.324401855
 30
0.0
 11
-360.85458374
 21
926.272277832
 31
0.0
  0
LINE
  5
3FA
100
AcDbEntity
  8
1
  6
SOLID
 62
        7
100
AcDbLine
 10
-480.85458374
 20
923.986572266
 30
0.0
 11
-360.85458374
 21
923.986572266
 31
0.0
  0
LINE
  5
3FB
100
AcDbEntity
  8
1
  6
SOLID
 62
        7
100
AcDbLine
 10
-464.85458374
 20
926.652954102
 30
0.0
 11
-480.85458374
 21
923.986572266
 31
0.0
  0
LINE
  5
3FC
100
AcDbEntity
  8
1
  6
SOLID
 62
        7
100
AcDbLine
 10
-480.85458374
 20
923.986572266
 30
0.0
 11
-464.85458374
 21
921.32019043
 31
0.0
  0
LINE
  5
3FD
100
AcDbEntity
  8
1
  6
SOLID
 62
        7
100
AcDbLine
 10
-464.85458374
 20
921.32019043
 30
0.0
 11
-464.85458374
 21
926.652954102
 31
0.0
  0
LINE
  5
3FE
100
AcDbEntity
  8
1
  6
SOLID
 62
        7
100
AcDbLine
 10
-360.85458374
 20
923.986572266
 30
0.0
 11
-480.85458374
 21
923.986572266
 31
0.0
  0
LINE
  5
3FF
100
AcDbEntity
  8
1
  6
SOLID
 62
        7
100
AcDbLine
 10
-376.85458374
 20
921.32019043
 30
0.0
 11
-360.85458374
 21
923.986572266
 31
0.0
  0
LINE
  5
400
100
AcDbEntity
  8
1
  6
SOLID
 62
        7
100
AcDbLine
 10
-360.85458374
 20
923.986572266
 30
0.0
 11
-376.85458374
 21
926.652954102
 31
0.0
  0
LINE
  5
401
100
AcDbEntity
  8
1
  6
SOLID
 62
        7
100
AcDbLine
 10
-376.85458374
 20
926.652954102
 30
0.0
 11
-376.85458374
 21
921.32019043
 31
0.0
  0
TEXT
  5
402
100
AcDbEntity
  8
1
  6
SOLID
 62
        7
100
AcDbText
 10
-439.652130127
 20
931.986572266
 30
0.0
 40
16.0
  1
120
 72
        5
 11
-402.057052612
 21
931.986572266
 31
0.0
100
AcDbText
  0
ENDBLK
  5
403
100
AcDbEntity
  8
0
100
AcDbBlockEnd
  0
BLOCK
  5
408
100
AcDbEntity
  8
0
100
AcDbBlockBegin
  2
*D19
 70
        0
 10
0.0
 20
0.0
 30
0.0
  3
*D19
  1

  0
LINE
  5
409
100
AcDbEntity
  8
1
  6
SOLID
 62
        7
100
AcDbLine
 10
-516.854858398
 20
571.752990723
 30
0.0
 11
-516.854858398
 21
515.51348877
 31
0.0
  0
LINE
  5
40A
100
AcDbEntity
  8
1
  6
SOLID
 62
        7
100
AcDbLine
 10
-420.85458374
 20
731.233215332
 30
0.0
 11
-420.85458374
 21
515.51348877
 31
0.0
  0
LINE
  5
40B
100
AcDbEntity
  8
1
  6
SOLID
 62
        7
100
AcDbLine
 10
-516.854858398
 20
517.799194336
 30
0.0
 11
-420.85458374
 21
517.799194336
 31
0.0
  0
LINE
  5
40C
100
AcDbEntity
  8
1
  6
SOLID
 62
        7
100
AcDbLine
 10
-500.854858398
 20
520.465576172
 30
0.0
 11
-516.854858398
 21
517.799194336
 31
0.0
  0
LINE
  5
40D
100
AcDbEntity
  8
1
  6
SOLID
 62
        7
100
AcDbLine
 10
-516.854858398
 20
517.799194336
 30
0.0
 11
-500.854858398
 21
515.1328125
 31
0.0
  0
LINE
  5
40E
100
AcDbEntity
  8
1
  6
SOLID
 62
        7
100
AcDbLine
 10
-500.854858398
 20
515.1328125
 30
0.0
 11
-500.854858398
 21
520.465576172
 31
0.0
  0
LINE
  5
40F
100
AcDbEntity
  8
1
  6
SOLID
 62
        7
100
AcDbLine
 10
-420.85458374
 20
517.799194336
 30
0.0
 11
-516.854858398
 21
517.799194336
 31
0.0
  0
LINE
  5
410
100
AcDbEntity
  8
1
  6
SOLID
 62
        7
100
AcDbLine
 10
-436.85458374
 20
515.1328125
 30
0.0
 11
-420.85458374
 21
517.799194336
 31
0.0
  0
LINE
  5
411
100
AcDbEntity
  8
1
  6
SOLID
 62
        7
100
AcDbLine
 10
-420.85458374
 20
517.799194336
 30
0.0
 11
-436.85458374
 21
520.465576172
 31
0.0
  0
LINE
  5
412
100
AcDbEntity
  8
1
  6
SOLID
 62
        7
100
AcDbLine
 10
-436.85458374
 20
520.465576172
 30
0.0
 11
-436.85458374
 21
515.1328125
 31
0.0
  0
TEXT
  5
413
100
AcDbEntity
  8
1
  6
SOLID
 62
        7
100
AcDbText
 10
-488.31942749
 20
525.799194336
 30
0.0
 40
16.0
  1
106
 72
        5
 11
-449.390197754
 21
525.799194336
 31
0.0
100
AcDbText
  0
ENDBLK
  5
414
100
AcDbEntity
  8
0
100
AcDbBlockEnd
  0
ENDSEC
  0
SECTION
  2
ENTITIES
  0
INSERT
  5
5A
100
AcDbEntity
  8
1
100
AcDbBlockReference
  2
0
 10
0.0
 20
0.0
 30
0.0
  0
INSERT
  5
64
100
AcDbEntity
  8
1
100
AcDbBlockReference
  2
*L1
 10
0.0
 20
0.0
 30
0.0
  0
LINE
  5
65
100
AcDbEntity
  8
1
  6
CENTER
 62
        7
100
AcDbLine
 10
-88.302680039
 20
873.038774008
 30
0.0
 11
-114.174576373
 21
873.038774008
 31
0.0
  0
LINE
  5
66
100
AcDbEntity
  8
1
  6
CENTER
 62
        7
100
AcDbLine
 10
-101.6174442
 20
859.017353161
 30
0.0
 11
-101.6174442
 21
888.360752294
 31
0.0
  0
CIRCLE
  5
67
100
AcDbEntity
  8
1
  6
SOLID
 62
        7
100
AcDbCircle
 10
-101.6174442
 20
873.038774008
 30
0.0
 40
4.199999809
  0
ARC
  5
68
100
AcDbEntity
  8
1
  6
SOLID
 62
        7
100
AcDbCircle
 10
-101.6174442
 20
873.038774008
 30
0.0
 40
5.0
100
AcDbArc
 50
20.0
 51
320.0
  0
LINE
  5
69
100
AcDbEntity
  8
1
  6
CENTER
 62
        7
100
AcDbLine
 10
-46.302680039
 20
873.038774008
 30
0.0
 11
-68.60366338
 21
873.038774008
 31
0.0
  0
LINE
  5
6A
100
AcDbEntity
  8
1
  6
CENTER
 62
        7
100
AcDbLine
 10
-59.6174442
 20
859.017353161
 30
0.0
 11
-59.6174442
 21
888.360752294
 31
0.0
  0
CIRCLE
  5
6B
100
AcDbEntity
  8
1
  6
SOLID
 62
        7
100
AcDbCircle
 10
-59.6174442
 20
873.038774008
 30
0.0
 40
4.199999809
  0
ARC
  5
6C
100
AcDbEntity
  8
1
  6
SOLID
 62
        7
100
AcDbCircle
 10
-59.6174442
 20
873.038774008
 30
0.0
 40
5.0
100
AcDbArc
 50
20.0
 51
320.0
  0
ARC
  5
6D
100
AcDbEntity
  8
1
  6
SOLID
 62
        7
100
AcDbCircle
 10
-118.1174442
 20
609.038774008
 30
0.0
 40
5.0
100
AcDbArc
 50
0.0
 51
90.0
  0
LINE
  5
6E
100
AcDbEntity
  8
1
  6
SOLID
 62
        7
100
AcDbLine
 10
16.8825558
 20
614.038774008
 30
0.0
 11
151.8825558
 21
614.038774008
 31
0.0
  0
ARC
  5
6F
100
AcDbEntity
  8
1
  6
SOLID
 62
        7
100
AcDbCircle
 10
151.8825558
 20
619.038774008
 30
0.0
 40
5.0
100
AcDbArc
 50
270.0
 51
360.0
  0
LINE
  5
70
100
AcDbEntity
  8
1
  6
SOLID
 62
        7
100
AcDbLine
 10
103.821866029
 20
614.038774008
 30
0.0
 11
137.88527527
 21
614.038774008
 31
0.0
  0
LINE
  5
72
100
AcDbEntity
  8
1
  6
L_DASH
 62
        7
100
AcDbLine
 10
123.3825558
 20
614.038774008
 30
0.0
 11
123.3825558
 21
574.038774008
 31
0.0
  0
ARC
  5
73
100
AcDbEntity
  8
1
  6
SOLID
 62
        7
100
AcDbCircle
 10
76.8825558
 20
584.038774008
 30
0.0
 40
10.0
100
AcDbArc
 50
0.0
 51
90.0
  0
LINE
  5
74
100
AcDbEntity
  8
1
  6
CENTER
 62
        7
100
AcDbLine
 10
116.8825558
 20
617.626741262
 30
0.0
 11
116.8825558
 21
561.987467443
 31
0.0
  0
LINE
  5
75
100
AcDbEntity
  8
1
  6
SOLID
 62
        7
100
AcDbLine
 10
16.8825558
 20
614.038774008
 30
0.0
 11
-118.1174442
 21
614.038774008
 31
0.0
  0
LINE
  5
76
100
AcDbEntity
  8
1
  6
SOLID
 62
        7
100
AcDbLine
 10
76.8825558
 20
594.038774008
 30
0.0
 11
16.8825558
 21
594.038774008
 31
0.0
  0
LINE
  5
77
100
AcDbEntity
  8
1
  6
SOLID
 62
        7
100
AcDbLine
 10
-123.1174442
 20
619.038774008
 30
0.0
 11
-123.1174442
 21
620.038774008
 31
0.0
  0
LINE
  5
78
100
AcDbEntity
  8
1
  6
SOLID
 62
        7
100
AcDbLine
 10
-20.6174442
 20
894.038774008
 30
0.0
 11
16.8825558
 21
894.038774008
 31
0.0
  0
LINE
  5
79
100
AcDbEntity
  8
1
  6
L_DASH
 62
        7
100
AcDbLine
 10
124.8825558
 20
614.038774008
 30
0.0
 11
124.8825558
 21
574.038774008
 31
0.0
  0
LINE
  5
7A
100
AcDbEntity
  8
1
  6
L_DASH
 62
        7
100
AcDbLine
 10
110.3825558
 20
614.038774008
 30
0.0
 11
110.3825558
 21
574.038774008
 31
0.0
  0
LINE
  5
7B
100
AcDbEntity
  8
1
  6
L_DASH
 62
        7
100
AcDbLine
 10
108.8825558
 20
614.038774008
 30
0.0
 11
108.8825558
 21
574.038774008
 31
0.0
  0
ARC
  5
7C
100
AcDbEntity
  8
1
  6
SOLID
 62
        7
100
AcDbCircle
 10
151.8825558
 20
609.038774008
 30
0.0
 40
5.0
100
AcDbArc
 50
90.0
 51
180.0
  0
LINE
  5
7D
100
AcDbEntity
  8
1
  6
SOLID
 62
        7
100
AcDbLine
 10
146.8825558
 20
609.038774008
 30
0.0
 11
146.8825558
 21
574.038774008
 31
0.0
  0
ARC
  5
7E
100
AcDbEntity
  8
1
  6
SOLID
 62
        7
100
AcDbCircle
 10
-118.1174442
 20
619.038774008
 30
0.0
 40
5.0
100
AcDbArc
 50
180.0
 51
270.0
  0
LINE
  5
7F
100
AcDbEntity
  8
1
  6
SOLID
 62
        7
100
AcDbLine
 10
-48.1174442
 20
932.038718475
 30
0.0
 11
-48.1174442
 21
900.038774008
 31
0.0
  0
LINE
  5
80
100
AcDbEntity
  8
1
  6
SOLID
 62
        7
100
AcDbLine
 10
146.8825558
 20
574.038774008
 30
0.0
 11
86.8825558
 21
574.038774008
 31
0.0
  0
LINE
  5
81
100
AcDbEntity
  8
1
  6
SOLID
 62
        7
100
AcDbLine
 10
86.8825558
 20
584.038774008
 30
0.0
 11
86.8825558
 21
574.038774008
 31
0.0
  0
ARC
  5
82
100
AcDbEntity
  8
1
  6
SOLID
 62
        7
100
AcDbCircle
 10
-46.1174442
 20
932.038718475
 30
0.0
 40
2.0
100
AcDbArc
 50
90.0
 51
180.0
  0
LINE
  5
83
100
AcDbEntity
  8
1
  6
SOLID
 62
        7
100
AcDbLine
 10
-58.1174442
 20
934.038718475
 30
0.0
 11
-3.546429077
 21
934.038718475
 31
0.0
  0
LINE
  5
84
100
AcDbEntity
  8
1
  6
CENTER
 62
        7
100
AcDbLine
 10
86.808661836
 20
754.038774008
 30
0.0
 11
-62.149928432
 21
754.038774008
 31
0.0
  0
LINE
  5
85
100
AcDbEntity
  8
1
  6
SOLID
 62
        7
100
AcDbLine
 10
81.8825558
 20
932.038718475
 30
0.0
 11
81.8825558
 21
900.038774008
 31
0.0
  0
ARC
  5
86
100
AcDbEntity
  8
1
  6
SOLID
 62
        7
100
AcDbCircle
 10
79.8825558
 20
932.038718475
 30
0.0
 40
2.0
100
AcDbArc
 50
0.0
 51
90.0
  0
LINE
  5
87
100
AcDbEntity
  8
1
  6
SOLID
 62
        7
100
AcDbLine
 10
91.8825558
 20
934.038718475
 30
0.0
 11
37.311540677
 21
934.038718475
 31
0.0
  0
LINE
  5
88
100
AcDbEntity
  8
1
  6
CENTER
 62
        7
100
AcDbLine
 10
-83.1174442
 20
617.626741262
 30
0.0
 11
-83.1174442
 21
561.987467443
 31
0.0
  0
LINE
  5
89
100
AcDbEntity
  8
1
  6
SOLID
 62
        7
100
AcDbLine
 10
-70.056754429
 20
614.038774008
 30
0.0
 11
-104.12016367
 21
614.038774008
 31
0.0
  0
LINE
  5
8A
100
AcDbEntity
  8
1
  6
L_DASH
 62
        7
100
AcDbLine
 10
-89.6174442
 20
614.038774008
 30
0.0
 11
-89.6174442
 21
574.038774008
 31
0.0
  0
LINE
  5
8B
100
AcDbEntity
  8
1
  6
SOLID
 62
        7
100
AcDbLine
 10
-113.1174442
 20
609.038774008
 30
0.0
 11
-113.1174442
 21
574.038774008
 31
0.0
  0
ARC
  5
8C
100
AcDbEntity
  8
1
  6
SOLID
 62
        7
100
AcDbCircle
 10
-43.1174442
 20
584.038774008
 30
0.0
 40
10.0
100
AcDbArc
 50
90.0
 51
180.0
  0
LINE
  5
8D
100
AcDbEntity
  8
1
  6
SOLID
 62
        7
100
AcDbLine
 10
-53.1174442
 20
584.038774008
 30
0.0
 11
-53.1174442
 21
574.038774008
 31
0.0
  0
LINE
  5
8E
100
AcDbEntity
  8
1
  6
SOLID
 62
        7
100
AcDbLine
 10
-113.1174442
 20
574.038774008
 30
0.0
 11
-53.1174442
 21
574.038774008
 31
0.0
  0
LINE
  5
8F
100
AcDbEntity
  8
1
  6
CENTER
 62
        7
100
AcDbLine
 10
-83.1174442
 20
617.626741262
 30
0.0
 11
-83.1174442
 21
561.987467443
 31
0.0
  0
LINE
  5
90
100
AcDbEntity
  8
1
  6
SOLID
 62
        7
100
AcDbLine
 10
-43.1174442
 20
594.038774008
 30
0.0
 11
16.8825558
 21
594.038774008
 31
0.0
  0
LINE
  5
91
100
AcDbEntity
  8
1
  6
L_DASH
 62
        7
100
AcDbLine
 10
-91.1174442
 20
614.038774008
 30
0.0
 11
-91.1174442
 21
574.038774008
 31
0.0
  0
LINE
  5
92
100
AcDbEntity
  8
1
  6
L_DASH
 62
        7
100
AcDbLine
 10
-76.6174442
 20
614.038774008
 30
0.0
 11
-76.6174442
 21
574.038774008
 31
0.0
  0
LINE
  5
93
100
AcDbEntity
  8
1
  6
L_DASH
 62
        7
100
AcDbLine
 10
-75.1174442
 20
614.038774008
 30
0.0
 11
-75.1174442
 21
574.038774008
 31
0.0
  0
DIMENSION
  5
A3
100
AcDbEntity
  8
1
  6
SOLID
 62
        7
100
AcDbDimension
  2
*D2
 10
-113.117767334
 20
470.721984863
 30
0.0
 11
-1.915305614
 21
478.721984863
 31
0.0
  3
2
100
AcDbAlignedDimension
 13
146.882232666
 23
574.038696289
 33
0.0
 14
-113.117767334
 24
574.038696289
 34
0.0
100
AcDbRotatedDimension
  0
DIMENSION
  5
B3
100
AcDbEntity
  8
1
  6
SOLID
 62
        7
100
AcDbDimension
  2
*D3
 10
-83.117767334
 20
505.721984863
 30
0.0
 11
-1.915305614
 21
513.721984863
 31
0.0
  3
3
100
AcDbAlignedDimension
 13
116.882232666
 23
561.987426758
 33
0.0
 14
-83.117767334
 24
561.987426758
 34
0.0
100
AcDbRotatedDimension
  0
DIMENSION
  5
C3
100
AcDbEntity
  8
1
  6
SOLID
 62
        7
100
AcDbDimension
  2
*D4
 10
-53.117767334
 20
540.721984863
 30
0.0
 11
-1.915305614
 21
548.721984863
 31
0.0
  3
4
100
AcDbAlignedDimension
 13
86.882232666
 23
574.038696289
 33
0.0
 14
-53.117767334
 24
574.038696289
 34
0.0
100
AcDbRotatedDimension
  0
DIMENSION
  5
D3
100
AcDbEntity
  8
1
  6
SOLID
 62
        7
100
AcDbDimension
  2
*D5
 10
95.154693604
 20
574.038696289
 30
0.0
 11
93.304695129
 21
591.325744629
 31
0.0
  3
5
100
AcDbAlignedDimension
 13
137.885162354
 23
614.038696289
 33
0.0
 14
146.882232666
 24
574.038696289
 34
0.0
 50
90.0
100
AcDbRotatedDimension
  0
LINE
  5
D4
100
AcDbEntity
  8
1
  6
CENTER
 62
        7
100
AcDbLine
 10
16.8825558
 20
947.490480194
 30
0.0
 11
16.8825558
 21
581.046269669
 31
0.0
  0
CIRCLE
  5
D5
100
AcDbEntity
  8
1
  6
SOLID
 62
        7
100
AcDbCircle
 10
16.882553101
 20
914.038696289
 30
0.0
 40
6.5
  0
LINE
  5
D6
100
AcDbEntity
  8
1
  6
SOLID
 62
        7
100
AcDbLine
 10
23.382553101
 20
910.285919428
 30
0.0
 11
23.382553101
 21
917.79147315
 31
0.0
  0
DIMENSION
  5
E8
100
AcDbEntity
  8
1
  6
SOLID
 62
        7
100
AcDbDimension
  2
*D6
 10
-157.234222412
 20
574.038818359
 30
0.0
 11
-165.234222412
 21
584.640075684
 31
0.0
  3
6
100
AcDbAlignedDimension
 13
-140.617523193
 23
620.038818359
 33
0.0
 14
-113.117523193
 24
574.038818359
 34
0.0
 50
90.0
100
AcDbRotatedDimension
  0
DIMENSION
  5
F8
100
AcDbEntity
  8
1
  6
SOLID
 62
        7
100
AcDbDimension
  2
*D7
 10
-157.234222412
 20
620.038818359
 30
0.0
 11
-165.234222412
 21
741.241271973
 31
0.0
  3
7
100
AcDbAlignedDimension
 13
-140.617523193
 23
900.038818359
 33
0.0
 14
-140.617523193
 24
620.038818359
 34
0.0
 50
90.0
100
AcDbRotatedDimension
  0
DIMENSION
  5
108
100
AcDbEntity
  8
1
  6
SOLID
 62
        7
100
AcDbDimension
  2
*D8
 10
-192.234222412
 20
574.038818359
 30
0.0
 11
-200.234222412
 21
717.57421875
 31
0.0
  3
8
100
AcDbAlignedDimension
 13
-140.617523193
 23
900.038818359
 33
0.0
 14
-113.117523193
 24
574.038818359
 34
0.0
 50
90.0
100
AcDbRotatedDimension
  0
DIMENSION
  5
118
100
AcDbEntity
  8
1
  6
SOLID
 62
        7
100
AcDbDimension
  2
*D9
 10
-140.617523193
 20
435.721984863
 30
0.0
 11
-1.915061474
 21
443.721984863
 31
0.0
  1
  320   
  3
9
100
AcDbAlignedDimension
 13
174.382476807
 23
620.038818359
 33
0.0
 14
-140.617523193
 24
620.038818359
 34
0.0
100
AcDbRotatedDimension
  0
LINE
  5
119
100
AcDbEntity
  8
1
  6
SOLID
 62
        7
100
AcDbLine
 10
156.8825558
 20
619.038774008
 30
0.0
 11
156.8825558
 21
620.038774008
 31
0.0
  0
LINE
  5
11A
100
AcDbEntity
  8
1
  6
SOLID
 62
        7
100
AcDbLine
 10
174.3825558
 20
620.038774008
 30
0.0
 11
54.3825558
 21
620.038774008
 31
0.0
  0
LINE
  5
11B
100
AcDbEntity
  8
1
  6
CENTER
 62
        7
100
AcDbLine
 10
122.067791639
 20
635.038774008
 30
0.0
 11
147.939687972
 21
635.038774008
 31
0.0
  0
LINE
  5
11C
100
AcDbEntity
  8
1
  6
CENTER
 62
        7
100
AcDbLine
 10
80.067791639
 20
635.038774008
 30
0.0
 11
102.36877498
 21
635.038774008
 31
0.0
  0
LINE
  5
11D
100
AcDbEntity
  8
1
  6
CENTER
 62
        7
100
AcDbLine
 10
135.3825558
 20
649.060194854
 30
0.0
 11
135.3825558
 21
619.716795722
 31
0.0
  0
CIRCLE
  5
11E
100
AcDbEntity
  8
1
  6
SOLID
 62
        7
100
AcDbCircle
 10
135.3825558
 20
635.038774008
 30
0.0
 40
4.199999809
  0
ARC
  5
11F
100
AcDbEntity
  8
1
  6
SOLID
 62
        7
100
AcDbCircle
 10
135.3825558
 20
635.038774008
 30
0.0
 40
5.0
100
AcDbArc
 50
200.0
 51
140.0
  0
LINE
  5
120
100
AcDbEntity
  8
1
  6
CENTER
 62
        7
100
AcDbLine
 10
93.3825558
 20
649.060194854
 30
0.0
 11
93.3825558
 21
619.716795722
 31
0.0
  0
CIRCLE
  5
121
100
AcDbEntity
  8
1
  6
SOLID
 62
        7
100
AcDbCircle
 10
93.3825558
 20
635.038774008
 30
0.0
 40
4.199999809
  0
ARC
  5
122
100
AcDbEntity
  8
1
  6
SOLID
 62
        7
100
AcDbCircle
 10
93.3825558
 20
635.038774008
 30
0.0
 40
5.0
100
AcDbArc
 50
200.0
 51
140.0
  0
ARC
  5
123
100
AcDbEntity
  8
1
  6
SOLID
 62
        7
100
AcDbCircle
 10
16.8825558
 20
754.038774008
 30
0.0
 40
127.0
100
AcDbArc
 50
270.0
 51
287.174063718
  0
ARC
  5
124
100
AcDbEntity
  8
1
  6
SOLID
 62
        7
100
AcDbCircle
 10
16.8825558
 20
754.038774008
 30
0.0
 40
100.0
100
AcDbArc
 50
270.0
 51
292.024312837
  0
LINE
  5
125
100
AcDbEntity
  8
1
  6
SOLID
 62
        7
100
AcDbLine
 10
-20.6174442
 20
900.038774008
 30
0.0
 11
-20.6174442
 21
764.72642694
 31
0.0
  0
ARC
  5
126
100
AcDbEntity
  8
1
  6
SOLID
 62
        7
100
AcDbCircle
 10
16.8825558
 20
754.038774008
 30
0.0
 40
100.0
100
AcDbArc
 50
67.975687163
 51
90.0
  0
LINE
  5
127
100
AcDbEntity
  8
1
  6
SOLID
 62
        7
100
AcDbLine
 10
54.3825558
 20
900.038774008
 30
0.0
 11
54.3825558
 21
764.726425096
 31
0.0
  0
ARC
  5
128
100
AcDbEntity
  8
1
  6
SOLID
 62
        7
100
AcDbCircle
 10
16.8825558
 20
754.038774008
 30
0.0
 40
127.0
100
AcDbArc
 50
72.825936282
 51
90.0
  0
LINE
  5
129
100
AcDbEntity
  8
1
  6
SOLID
 62
        7
100
AcDbLine
 10
54.3825558
 20
743.35112578
 30
0.0
 11
54.3825558
 21
620.038774008
 31
0.0
  0
LINE
  5
12A
100
AcDbEntity
  8
1
  6
CENTER
 62
        7
100
AcDbLine
 10
80.067791639
 20
873.038774008
 30
0.0
 11
102.36877498
 21
873.038774008
 31
0.0
  0
LINE
  5
12B
100
AcDbEntity
  8
1
  6
CENTER
 62
        7
100
AcDbLine
 10
93.3825558
 20
859.017353161
 30
0.0
 11
93.3825558
 21
888.360752294
 31
0.0
  0
CIRCLE
  5
12C
100
AcDbEntity
  8
1
  6
SOLID
 62
        7
100
AcDbCircle
 10
93.3825558
 20
873.038774008
 30
0.0
 40
4.199999809
  0
ARC
  5
12D
100
AcDbEntity
  8
1
  6
SOLID
 62
        7
100
AcDbCircle
 10
93.3825558
 20
873.038774008
 30
0.0
 40
5.0
100
AcDbArc
 50
220.0
 51
160.0
  0
LINE
  5
12E
100
AcDbEntity
  8
1
  6
SOLID
 62
        7
100
AcDbLine
 10
174.3825558
 20
900.038774008
 30
0.0
 11
54.3825558
 21
900.038774008
 31
0.0
  0
LINE
  5
12F
100
AcDbEntity
  8
1
  6
SOLID
 62
        7
100
AcDbLine
 10
174.3825558
 20
888.038774008
 30
0.0
 11
54.3825558
 21
888.038774008
 31
0.0
  0
LINE
  5
130
100
AcDbEntity
  8
1
  6
SOLID
 62
        7
100
AcDbLine
 10
174.3825558
 20
900.038774008
 30
0.0
 11
174.3825558
 21
620.038774008
 31
0.0
  0
LINE
  5
131
100
AcDbEntity
  8
1
  6
CENTER
 62
        7
100
AcDbLine
 10
122.067791639
 20
873.038774008
 30
0.0
 11
147.939687972
 21
873.038774008
 31
0.0
  0
LINE
  5
132
100
AcDbEntity
  8
1
  6
CENTER
 62
        7
100
AcDbLine
 10
135.3825558
 20
859.017353161
 30
0.0
 11
135.3825558
 21
888.360752294
 31
0.0
  0
CIRCLE
  5
133
100
AcDbEntity
  8
1
  6
SOLID
 62
        7
100
AcDbCircle
 10
135.3825558
 20
873.038774008
 30
0.0
 40
4.199999809
  0
ARC
  5
134
100
AcDbEntity
  8
1
  6
SOLID
 62
        7
100
AcDbCircle
 10
135.3825558
 20
873.038774008
 30
0.0
 40
5.0
100
AcDbArc
 50
220.0
 51
160.0
  0
LINE
  5
135
100
AcDbEntity
  8
1
  6
SOLID
 62
        7
100
AcDbLine
 10
54.3825558
 20
894.038774008
 30
0.0
 11
16.8825558
 21
894.038774008
 31
0.0
  0
ARC
  5
136
100
AcDbEntity
  8
1
  6
SOLID
 62
        7
100
AcDbCircle
 10
16.8825558
 20
754.038774008
 30
0.0
 40
127.0
100
AcDbArc
 50
252.825936282
 51
270.0
  0
ARC
  5
137
100
AcDbEntity
  8
1
  6
SOLID
 62
        7
100
AcDbCircle
 10
16.8825558
 20
754.038774008
 30
0.0
 40
100.0
100
AcDbArc
 50
247.975687163
 51
270.0
  0
LINE
  5
138
100
AcDbEntity
  8
1
  6
CENTER
 62
        7
100
AcDbLine
 10
-88.302680039
 20
635.038774008
 30
0.0
 11
-114.174576373
 21
635.038774008
 31
0.0
  0
LINE
  5
139
100
AcDbEntity
  8
1
  6
CENTER
 62
        7
100
AcDbLine
 10
-101.6174442
 20
649.060194854
 30
0.0
 11
-101.6174442
 21
619.716795722
 31
0.0
  0
CIRCLE
  5
13A
100
AcDbEntity
  8
1
  6
SOLID
 62
        7
100
AcDbCircle
 10
-101.6174442
 20
635.038774008
 30
0.0
 40
4.199999809
  0
ARC
  5
13B
100
AcDbEntity
  8
1
  6
SOLID
 62
        7
100
AcDbCircle
 10
-101.6174442
 20
635.038774008
 30
0.0
 40
5.0
100
AcDbArc
 50
40.0
 51
340.0
  0
LINE
  5
13C
100
AcDbEntity
  8
1
  6
CENTER
 62
        7
100
AcDbLine
 10
-46.302680039
 20
635.038774008
 30
0.0
 11
-68.60366338
 21
635.038774008
 31
0.0
  0
LINE
  5
13D
100
AcDbEntity
  8
1
  6
CENTER
 62
        7
100
AcDbLine
 10
-59.6174442
 20
649.060194854
 30
0.0
 11
-59.6174442
 21
619.716795722
 31
0.0
  0
CIRCLE
  5
13E
100
AcDbEntity
  8
1
  6
SOLID
 62
        7
100
AcDbCircle
 10
-59.6174442
 20
635.038774008
 30
0.0
 40
4.199999809
  0
LINE
  5
13F
100
AcDbEntity
  8
1
  6
SOLID
 62
        7
100
AcDbLine
 10
16.8825558
 20
906.538696289
 30
0.0
 11
174.3825558
 21
906.538696289
 31
0.0
  0
ARC
  5
140
100
AcDbEntity
  8
1
  6
SOLID
 62
        7
100
AcDbCircle
 10
16.8825558
 20
754.038774008
 30
0.0
 40
100.0
100
AcDbArc
 50
90.0
 51
112.024312837
  0
ARC
  5
141
100
AcDbEntity
  8
1
  6
SOLID
 62
        7
100
AcDbCircle
 10
-59.6174442
 20
635.038774008
 30
0.0
 40
5.0
100
AcDbArc
 50
40.0
 51
340.0
  0
ARC
  5
142
100
AcDbEntity
  8
1
  6
SOLID
 62
        7
100
AcDbCircle
 10
16.8825558
 20
754.038774008
 30
0.0
 40
127.0
100
AcDbArc
 50
90.0
 51
107.174063718
  0
LINE
  5
143
100
AcDbEntity
  8
1
  6
SOLID
 62
        7
100
AcDbLine
 10
-140.6174442
 20
900.038774008
 30
0.0
 11
-20.6174442
 21
900.038774008
 31
0.0
  0
LINE
  5
144
100
AcDbEntity
  8
1
  6
SOLID
 62
        7
100
AcDbLine
 10
-140.6174442
 20
888.038774008
 30
0.0
 11
-20.6174442
 21
888.038774008
 31
0.0
  0
LINE
  5
145
100
AcDbEntity
  8
1
  6
SOLID
 62
        7
100
AcDbLine
 10
-140.6174442
 20
620.038774008
 30
0.0
 11
-20.6174442
 21
620.038774008
 31
0.0
  0
LINE
  5
146
100
AcDbEntity
  8
1
  6
SOLID
 62
        7
100
AcDbLine
 10
16.882553101
 20
906.533142567
 30
0.0
 11
23.382553264
 21
910.285919478
 31
0.0
  0
LINE
  5
147
100
AcDbEntity
  8
1
  6
SOLID
 62
        7
100
AcDbLine
 10
10.382553101
 20
910.285919428
 30
0.0
 11
16.882553264
 21
906.533142516
 31
0.0
  0
LINE
  5
148
100
AcDbEntity
  8
1
  6
SOLID
 62
        7
100
AcDbLine
 10
10.382553101
 20
917.79147315
 30
0.0
 11
10.382553101
 21
910.285919428
 31
0.0
  0
LINE
  5
149
100
AcDbEntity
  8
1
  6
SOLID
 62
        7
100
AcDbLine
 10
-20.6174442
 20
743.351123936
 30
0.0
 11
-20.6174442
 21
620.038774008
 31
0.0
  0
LINE
  5
14A
100
AcDbEntity
  8
1
  6
SOLID
 62
        7
100
AcDbLine
 10
16.8825558
 20
905.038696289
 30
0.0
 11
174.3825558
 21
905.038696289
 31
0.0
  0
LINE
  5
14B
100
AcDbEntity
  8
1
  6
SOLID
 62
        7
100
AcDbLine
 10
-140.6174442
 20
900.038774008
 30
0.0
 11
-140.6174442
 21
620.038774008
 31
0.0
  0
LINE
  5
14C
100
AcDbEntity
  8
1
  6
SOLID
 62
        7
100
AcDbLine
 10
16.882553101
 20
921.544250011
 30
0.0
 11
10.382552937
 21
917.7914731
 31
0.0
  0
LINE
  5
14D
100
AcDbEntity
  8
1
  6
SOLID
 62
        7
100
AcDbLine
 10
23.382553101
 20
917.79147315
 30
0.0
 11
16.882552937
 21
921.544250062
 31
0.0
  0
LINE
  5
14E
100
AcDbEntity
  8
1
  6
SOLID
 62
        7
100
AcDbLine
 10
46.8825558
 20
941.038718475
 30
0.0
 11
46.8825558
 21
936.038718475
 31
0.0
  0
LINE
  5
14F
100
AcDbEntity
  8
1
  6
SOLID
 62
        7
100
AcDbLine
 10
-13.1174442
 20
941.038718475
 30
0.0
 11
-13.1174442
 21
936.038718475
 31
0.0
  0
LINE
  5
150
100
AcDbEntity
  8
1
  6
SOLID
 62
        7
100
AcDbLine
 10
-140.6174442
 20
905.038696289
 30
0.0
 11
-140.6174442
 21
906.538696289
 31
0.0
  0
LINE
  5
151
100
AcDbEntity
  8
1
  6
SOLID
 62
        7
100
AcDbLine
 10
174.3825558
 20
905.038696289
 30
0.0
 11
174.3825558
 21
906.538696289
 31
0.0
  0
LINE
  5
152
100
AcDbEntity
  8
1
  6
SOLID
 62
        7
100
AcDbLine
 10
34.420305621
 20
926.038718475
 30
0.0
 11
-0.52916858
 21
926.038718475
 31
0.0
  0
LINE
  5
153
100
AcDbEntity
  8
1
  6
SOLID
 62
        7
100
AcDbLine
 10
-0.893812066
 20
925.965560565
 30
0.0
 11
-4.203573912
 21
936.038718475
 31
0.0
  0
LINE
  5
154
100
AcDbEntity
  8
1
  6
SOLID
 62
        7
100
AcDbLine
 10
30.611709056
 20
906.538696289
 30
0.0
 11
34.658923666
 21
925.965560565
 31
0.0
  0
LINE
  5
155
100
AcDbEntity
  8
1
  6
SOLID
 62
        7
100
AcDbLine
 10
3.153402544
 20
906.538696289
 30
0.0
 11
-0.893812066
 21
925.965560565
 31
0.0
  0
LINE
  5
156
100
AcDbEntity
  8
1
  6
SOLID
 62
        7
100
AcDbLine
 10
46.8825558
 20
941.038718475
 30
0.0
 11
-13.1174442
 21
941.038718475
 31
0.0
  0
LINE
  5
157
100
AcDbEntity
  8
1
  6
SOLID
 62
        7
100
AcDbLine
 10
46.8825558
 20
936.038718475
 30
0.0
 11
-13.1174442
 21
936.038718475
 31
0.0
  0
LINE
  5
158
100
AcDbEntity
  8
1
  6
CENTER
 62
        7
100
AcDbLine
 10
33.130221484
 20
914.038718475
 30
0.0
 11
1.92580013
 21
914.038718475
 31
0.0
  0
LINE
  5
159
100
AcDbEntity
  8
1
  6
SOLID
 62
        7
100
AcDbLine
 10
34.658923666
 20
925.965560565
 30
0.0
 11
37.968685511
 21
936.038718475
 31
0.0
  0
LINE
  5
15A
100
AcDbEntity
  8
1
  6
SOLID
 62
        7
100
AcDbLine
 10
29.8825558
 20
903.038718475
 30
0.0
 11
3.8825558
 21
903.038718475
 31
0.0
  0
LINE
  5
15B
100
AcDbEntity
  8
1
  6
SOLID
 62
        7
100
AcDbLine
 10
-140.6174442
 20
906.538696289
 30
0.0
 11
16.8825558
 21
906.538696289
 31
0.0
  0
LINE
  5
15C
100
AcDbEntity
  8
1
  6
SOLID
 62
        7
100
AcDbLine
 10
-140.6174442
 20
905.038696289
 30
0.0
 11
16.8825558
 21
905.038696289
 31
0.0
  0
LINE
  5
15D
100
AcDbEntity
  8
1
  6
SOLID
 62
        7
100
AcDbLine
 10
3.8825558
 20
903.038718475
 30
0.0
 11
3.465898777
 21
905.038696289
 31
0.0
  0
LINE
  5
15E
100
AcDbEntity
  8
1
  6
SOLID
 62
        7
100
AcDbLine
 10
29.8825558
 20
903.038718475
 30
0.0
 11
30.299212822
 21
905.038696289
 31
0.0
  0
LINE
  5
15F
100
AcDbEntity
  8
1
  6
SOLID
 62
        7
100
AcDbLine
 10
-47.1174442
 20
935.538718475
 30
0.0
 11
-58.1174442
 21
935.538718475
 31
0.0
  0
LINE
  5
160
100
AcDbEntity
  8
1
  6
SOLID
 62
        7
100
AcDbLine
 10
-58.1174442
 20
934.038718475
 30
0.0
 11
-58.1174442
 21
935.538718475
 31
0.0
  0
LINE
  5
161
100
AcDbEntity
  8
1
  6
SOLID
 62
        7
100
AcDbLine
 10
80.8825558
 20
1015.538718475
 30
0.0
 11
16.8825558
 21
1015.538718475
 31
0.0
  0
LINE
  5
162
100
AcDbEntity
  8
1
  6
SOLID
 62
        7
100
AcDbLine
 10
-47.1174442
 20
1015.538718475
 30
0.0
 11
16.8825558
 21
1015.538718475
 31
0.0
  0
LINE
  5
163
100
AcDbEntity
  8
1
  6
SOLID
 62
        7
100
AcDbLine
 10
-47.1174442
 20
935.538718475
 30
0.0
 11
-47.1174442
 21
1015.538718475
 31
0.0
  0
LINE
  5
164
100
AcDbEntity
  8
1
  6
SOLID
 62
        7
100
AcDbLine
 10
80.8825558
 20
935.538718475
 30
0.0
 11
80.8825558
 21
1015.538718475
 31
0.0
  0
LINE
  5
165
100
AcDbEntity
  8
1
  6
CENTER
 62
        7
100
AcDbLine
 10
16.8825558
 20
934.038718475
 30
0.0
 11
16.8825558
 21
1015.538718475
 31
0.0
  0
LINE
  5
166
100
AcDbEntity
  8
1
  6
SOLID
 62
        7
100
AcDbLine
 10
91.8825558
 20
934.038718475
 30
0.0
 11
91.8825558
 21
935.538718475
 31
0.0
  0
LINE
  5
167
100
AcDbEntity
  8
1
  6
SOLID
 62
        7
100
AcDbLine
 10
80.8825558
 20
935.538718475
 30
0.0
 11
91.8825558
 21
935.538718475
 31
0.0
  0
LINE
  5
168
100
AcDbEntity
  8
1
  6
SOLID
 62
        7
100
AcDbLine
 10
-56.1174442
 20
934.038718475
 30
0.0
 11
-56.1174442
 21
935.538718475
 31
0.0
  0
LINE
  5
169
100
AcDbEntity
  8
1
  6
SOLID
 62
        7
100
AcDbLine
 10
89.8825558
 20
934.038718475
 30
0.0
 11
89.8825558
 21
935.538718475
 31
0.0
  0
LINE
  5
16A
100
AcDbEntity
  8
1
  6
SOLID
 62
        7
100
AcDbLine
 10
-1048.254884523
 20
724.390041415
 30
0.0
 11
-1053.201374311
 21
713.29386162
 31
0.0
  0
LINE
  5
16B
100
AcDbEntity
  8
1
  6
SOLID
 62
        7
100
AcDbLine
 10
-1053.881728935
 20
711.14238538
 30
0.0
 11
-1055.188836495
 21
704.461613405
 31
0.0
  0
LINE
  5
16C
100
AcDbEntity
  8
1
  6
SOLID
 62
        7
100
AcDbLine
 10
-1055.306415989
 20
703.709909817
 30
0.0
 11
-1057.748076339
 21
682.955796844
 31
0.0
  0
LINE
  5
16D
100
AcDbEntity
  8
1
  6
SOLID
 62
        7
100
AcDbLine
 10
-1050.36290355
 20
702.936658627
 30
0.0
 11
-1052.782323318
 21
682.371590606
 31
0.0
  0
LINE
  5
16E
100
AcDbEntity
  8
1
  6
SOLID
 62
        7
100
AcDbLine
 10
-1049.083779631
 20
709.625144831
 30
0.0
 11
-1050.245324056
 21
703.688362215
 31
0.0
  0
LINE
  5
16F
100
AcDbEntity
  8
1
  6
SOLID
 62
        7
100
AcDbLine
 10
-1046.726331524
 20
715.538749695
 30
0.0
 11
-1048.403425008
 21
711.776621071
 31
0.0
  0
ARC
  5
170
100
AcDbEntity
  8
1
  6
SOLID
 62
        7
100
AcDbCircle
 10
-1039.269853082
 20
707.705028767
 30
0.0
 40
10.0
100
AcDbArc
 50
155.973493421
 51
168.929797422
  0
ARC
  5
171
100
AcDbEntity
  8
1
  6
SOLID
 62
        7
100
AcDbCircle
 10
-1040.431397507
 20
701.768246151
 30
0.0
 40
10.0
100
AcDbArc
 50
168.929797422
 51
173.290163192
  0
ARC
  5
172
100
AcDbEntity
  8
1
  6
SOLID
 62
        7
100
AcDbCircle
 10
-1045.374909946
 20
702.541497342
 30
0.0
 40
10.0
100
AcDbArc
 50
168.929797422
 51
173.290163192
  0
ARC
  5
173
100
AcDbEntity
  8
1
  6
SOLID
 62
        7
100
AcDbCircle
 10
-1044.067802386
 20
709.222269316
 30
0.0
 40
10.0
100
AcDbArc
 50
155.973493421
 51
168.929797422
  0
LINE
  5
174
100
AcDbEntity
  8
1
  6
SOLID
 62
        7
100
AcDbLine
 10
-1057.748076339
 20
682.955796844
 30
0.0
 11
-1056.85851742
 21
683.124058995
 31
0.0
  0
LINE
  5
175
100
AcDbEntity
  8
1
  6
SOLID
 62
        7
100
AcDbLine
 10
-1056.85851742
 20
683.124058995
 30
0.0
 11
-1056.397603326
 21
683.185514208
 31
0.0
  0
LINE
  5
176
100
AcDbEntity
  8
1
  6
SOLID
 62
        7
100
AcDbLine
 10
-1056.397603326
 20
683.185514208
 30
0.0
 11
-1055.53723035
 21
683.462062664
 31
0.0
  0
LINE
  5
177
100
AcDbEntity
  8
1
  6
SOLID
 62
        7
100
AcDbLine
 10
-1055.53723035
 20
683.462062664
 30
0.0
 11
-1055.014861043
 21
683.554245483
 31
0.0
  0
LINE
  5
178
100
AcDbEntity
  8
1
  6
SOLID
 62
        7
100
AcDbLine
 10
-1055.014861043
 20
683.554245483
 30
0.0
 11
-1054.062305248
 21
683.615700696
 31
0.0
  0
LINE
  5
179
100
AcDbEntity
  8
1
  6
SOLID
 62
        7
100
AcDbLine
 10
-1054.062305248
 20
683.615700696
 30
0.0
 11
-1053.601391154
 21
683.584973089
 31
0.0
  0
LINE
  5
17A
100
AcDbEntity
  8
1
  6
SOLID
 62
        7
100
AcDbLine
 10
-1053.601391154
 20
683.584973089
 30
0.0
 11
-1053.263387485
 21
683.339152239
 31
0.0
  0
LINE
  5
17B
100
AcDbEntity
  8
1
  6
SOLID
 62
        7
100
AcDbLine
 10
-1053.263387485
 20
683.339152239
 30
0.0
 11
-1052.89465621
 21
683.124058995
 31
0.0
  0
LINE
  5
17C
100
AcDbEntity
  8
1
  6
SOLID
 62
        7
100
AcDbLine
 10
-1052.89465621
 20
683.124058995
 30
0.0
 11
-1052.802473391
 21
682.540234476
 31
0.0
  0
LINE
  5
17D
100
AcDbEntity
  8
1
  6
SOLID
 62
        7
100
AcDbLine
 10
-1052.802473391
 20
682.540234476
 30
0.0
 11
-1052.741018178
 21
682.417324051
 31
0.0
  0
LINE
  5
17E
100
AcDbEntity
  8
1
  6
SOLID
 62
        7
100
AcDbLine
 10
-1052.741018178
 20
682.417324051
 30
0.0
 11
-1052.741018178
 21
682.048592775
 31
0.0
  0
LINE
  5
17F
100
AcDbEntity
  8
1
  6
SOLID
 62
        7
100
AcDbLine
 10
-1052.741018178
 20
682.048592775
 30
0.0
 11
-1053.171204666
 21
681.587678681
 31
0.0
  0
LINE
  5
180
100
AcDbEntity
  8
1
  6
SOLID
 62
        7
100
AcDbLine
 10
-1053.171204666
 20
681.587678681
 30
0.0
 11
-1054.492491736
 21
681.188219799
 31
0.0
  0
LINE
  5
181
100
AcDbEntity
  8
1
  6
SOLID
 62
        7
100
AcDbLine
 10
-1054.492491736
 20
681.188219799
 30
0.0
 11
-1055.445047531
 21
681.372585437
 31
0.0
  0
LINE
  5
182
100
AcDbEntity
  8
1
  6
SOLID
 62
        7
100
AcDbLine
 10
-1055.445047531
 20
681.372585437
 30
0.0
 11
-1056.397603326
 21
681.833499531
 31
0.0
  0
LINE
  5
183
100
AcDbEntity
  8
1
  6
SOLID
 62
        7
100
AcDbLine
 10
-1056.397603326
 20
681.833499531
 30
0.0
 11
-1057.135065877
 21
682.570962082
 31
0.0
  0
LINE
  5
184
100
AcDbEntity
  8
1
  6
SOLID
 62
        7
100
AcDbLine
 10
-1057.135065877
 20
682.570962082
 30
0.0
 11
-1057.503797152
 21
682.816782932
 31
0.0
  0
LINE
  5
185
100
AcDbEntity
  8
1
  6
SOLID
 62
        7
100
AcDbLine
 10
-1057.503797152
 20
682.816782932
 30
0.0
 11
-1057.748076339
 21
682.955796844
 31
0.0
  0
ARC
  5
186
100
AcDbEntity
  8
1
  6
SOLID
 62
        7
100
AcDbCircle
 10
16.882554684
 20
754.038683446
 30
0.0
 40
36.5
100
AcDbArc
 50
251.273217633
 51
243.416077594
  0
LINE
  5
187
100
AcDbEntity
  8
1
  6
SOLID
 62
        7
100
AcDbLine
 10
14.882554684
 20
737.927372143
 30
0.0
 11
11.231373137
 21
736.071016388
 31
0.0
  0
ARC
  5
188
100
AcDbEntity
  8
1
  6
SOLID
 62
        7
100
AcDbCircle
 10
-22.528738114
 20
741.038775438
 30
0.0
 40
3.0
100
AcDbArc
 50
18.255381896
 51
90.0
  0
ARC
  5
189
100
AcDbEntity
  8
1
  6
SOLID
 62
        7
100
AcDbCircle
 10
-22.528738114
 20
767.038775438
 30
0.0
 40
3.0
100
AcDbArc
 50
270.0
 51
341.744618104
  0
CIRCLE
  5
18A
100
AcDbEntity
  8
1
  6
SOLID
 62
        7
100
AcDbCircle
 10
-29.617400964
 20
754.038772739
 30
0.0
 40
5.0
  0
LINE
  5
18B
100
AcDbEntity
  8
1
  6
SOLID
 62
        7
100
AcDbLine
 10
-31.060776671
 20
756.538772739
 30
0.0
 11
-28.174025257
 21
756.538772739
 31
0.0
  0
LINE
  5
18C
100
AcDbEntity
  8
1
  6
SOLID
 62
        7
100
AcDbLine
 10
-32.504152377
 20
754.038772739
 30
0.0
 11
-31.060776651
 21
756.538772786
 31
0.0
  0
LINE
  5
18D
100
AcDbEntity
  8
1
  6
SOLID
 62
        7
100
AcDbLine
 10
-31.060776671
 20
751.538772739
 30
0.0
 11
-32.504152397
 21
754.038772786
 31
0.0
  0
LINE
  5
18E
100
AcDbEntity
  8
1
  6
SOLID
 62
        7
100
AcDbLine
 10
-28.174025257
 20
751.538772739
 30
0.0
 11
-31.060776671
 21
751.538772739
 31
0.0
  0
LINE
  5
18F
100
AcDbEntity
  8
1
  6
SOLID
 62
        7
100
AcDbLine
 10
-26.730649551
 20
754.038772739
 30
0.0
 11
-28.174025277
 21
751.538772692
 31
0.0
  0
LINE
  5
190
100
AcDbEntity
  8
1
  6
SOLID
 62
        7
100
AcDbLine
 10
-28.174025257
 20
756.538772739
 30
0.0
 11
-26.730649531
 21
754.038772692
 31
0.0
  0
ARC
  5
191
100
AcDbEntity
  8
1
  6
SOLID
 62
        7
100
AcDbCircle
 10
-34.644137428
 20
761.038775438
 30
0.0
 40
3.0
100
AcDbArc
 50
90.0
 51
172.26361996
  0
ARC
  5
192
100
AcDbEntity
  8
1
  6
SOLID
 62
        7
100
AcDbCircle
 10
16.882554684
 20
754.038775438
 30
0.0
 40
55.0
100
AcDbArc
 50
172.26361996
 51
187.73638004
  0
ARC
  5
193
100
AcDbEntity
  8
1
  6
CENTER
 62
        7
100
AcDbCircle
 10
16.882554684
 20
754.038775438
 30
0.0
 40
46.5
100
AcDbArc
 50
170.0
 51
190.0
  0
LINE
  5
194
100
AcDbEntity
  8
1
  6
SOLID
 62
        7
100
AcDbLine
 10
-34.644137428
 20
764.038775438
 30
0.0
 11
-22.528738114
 21
764.038775438
 31
0.0
  0
ARC
  5
195
100
AcDbEntity
  8
1
  6
SOLID
 62
        7
100
AcDbCircle
 10
-34.644137428
 20
747.038775438
 30
0.0
 40
3.0
100
AcDbArc
 50
187.73638004
 51
270.0
  0
LINE
  5
196
100
AcDbEntity
  8
1
  6
SOLID
 62
        7
100
AcDbLine
 10
-34.644137428
 20
744.038775438
 30
0.0
 11
-22.528738114
 21
744.038775438
 31
0.0
  0
ARC
  5
197
100
AcDbEntity
  8
1
  6
SOLID
 62
        7
100
AcDbCircle
 10
21.257745789
 20
737.61142925
 30
0.0
 40
3.0
100
AcDbArc
 50
212.836118904
 51
284.913719363
  0
ARC
  5
198
100
AcDbEntity
  8
1
  6
SOLID
 62
        7
100
AcDbCircle
 10
12.38252608
 20
736.610357766
 30
0.0
 40
5.0
100
AcDbArc
 50
32.836118904
 51
75.522393777
  0
LINE
  5
199
100
AcDbEntity
  8
1
  6
SOLID
 62
        7
100
AcDbLine
 10
18.737070948
 20
735.984715278
 30
0.0
 11
16.583650815
 21
739.321547719
 31
0.0
  0
ARC
  5
19A
100
AcDbEntity
  8
1
  6
SOLID
 62
        7
100
AcDbCircle
 10
16.882554684
 20
754.038775438
 30
0.0
 40
38.5
100
AcDbArc
 50
270.0
 51
341.744618104
  0
ARC
  5
19B
100
AcDbEntity
  8
1
  6
SOLID
 62
        7
100
AcDbCircle
 10
16.882554684
 20
754.038775438
 30
0.0
 40
38.5
100
AcDbArc
 50
198.255381896
 51
243.549067686
  0
LINE
  5
19C
100
AcDbEntity
  8
1
  6
SOLID
 62
        7
100
AcDbLine
 10
66.269350449
 20
754.038772739
 30
0.0
 11
64.825974723
 21
751.538772692
 31
0.0
  0
LINE
  5
19D
100
AcDbEntity
  8
1
  6
SOLID
 62
        7
100
AcDbLine
 10
64.825974743
 20
756.538772739
 30
0.0
 11
66.269350469
 21
754.038772692
 31
0.0
  0
LINE
  5
19E
100
AcDbEntity
  8
1
  6
SOLID
 62
        7
100
AcDbLine
 10
61.939223329
 20
756.538772739
 30
0.0
 11
64.825974743
 21
756.538772739
 31
0.0
  0
LINE
  5
19F
100
AcDbEntity
  8
1
  6
SOLID
 62
        7
100
AcDbLine
 10
60.495847623
 20
754.038772739
 30
0.0
 11
61.939223349
 21
756.538772786
 31
0.0
  0
CIRCLE
  5
1A0
100
AcDbEntity
  8
1
  6
SOLID
 62
        7
100
AcDbCircle
 10
63.382599036
 20
754.038772739
 30
0.0
 40
5.0
  0
LINE
  5
1A1
100
AcDbEntity
  8
1
  6
SOLID
 62
        7
100
AcDbLine
 10
64.825974743
 20
751.538772739
 30
0.0
 11
61.939223329
 21
751.538772739
 31
0.0
  0
ARC
  5
1A2
100
AcDbEntity
  8
1
  6
CENTER
 62
        7
100
AcDbCircle
 10
16.882554684
 20
754.038775438
 30
0.0
 40
46.5
100
AcDbArc
 50
350.0
 51
10.0
  0
LINE
  5
1A3
100
AcDbEntity
  8
1
  6
SOLID
 62
        7
100
AcDbLine
 10
68.409246796
 20
764.038775438
 30
0.0
 11
56.293847482
 21
764.038775438
 31
0.0
  0
LINE
  5
1A4
100
AcDbEntity
  8
1
  6
SOLID
 62
        7
100
AcDbLine
 10
68.409246796
 20
744.038775438
 30
0.0
 11
56.293847482
 21
744.038775438
 31
0.0
  0
ARC
  5
1A5
100
AcDbEntity
  8
1
  6
SOLID
 62
        7
100
AcDbCircle
 10
68.409246796
 20
761.038775438
 30
0.0
 40
3.0
100
AcDbArc
 50
7.73638004
 51
90.0
  0
ARC
  5
1A6
100
AcDbEntity
  8
1
  6
SOLID
 62
        7
100
AcDbCircle
 10
56.293847482
 20
767.038775438
 30
0.0
 40
3.0
100
AcDbArc
 50
198.255381896
 51
270.0
  0
ARC
  5
1A7
100
AcDbEntity
  8
1
  6
SOLID
 62
        7
100
AcDbCircle
 10
56.293847482
 20
741.038775438
 30
0.0
 40
3.0
100
AcDbArc
 50
90.0
 51
161.744618104
  0
ARC
  5
1A8
100
AcDbEntity
  8
1
  6
SOLID
 62
        7
100
AcDbCircle
 10
68.409246796
 20
747.038775438
 30
0.0
 40
3.0
100
AcDbArc
 50
270.0
 51
352.26361996
  0
LINE
  5
1A9
100
AcDbEntity
  8
1
  6
SOLID
 62
        7
100
AcDbLine
 10
61.939223329
 20
751.538772739
 30
0.0
 11
60.495847603
 21
754.038772786
 31
0.0
  0
ARC
  5
1AA
100
AcDbEntity
  8
1
  6
SOLID
 62
        7
100
AcDbCircle
 10
16.882554684
 20
754.038775438
 30
0.0
 40
55.0
100
AcDbArc
 50
352.26361996
 51
7.73638004
  0
ARC
  5
1AB
100
AcDbEntity
  8
1
  6
SOLID
 62
        7
100
AcDbCircle
 10
28.339107894
 20
766.598528165
 30
0.0
 40
3.0
100
AcDbArc
 50
47.630057865
 51
127.360071256
  0
ARC
  5
1AC
100
AcDbEntity
  8
1
  6
SOLID
 62
        7
100
AcDbCircle
 10
21.494480485
 20
771.437917383
 30
0.0
 40
5.0
100
AcDbArc
 50
255.154224712
 51
307.360071256
  0
LINE
  5
1AD
100
AcDbEntity
  8
1
  6
SOLID
 62
        7
100
AcDbLine
 10
26.518641672
 20
768.983041266
 30
0.0
 11
24.528590856
 21
767.46372888
 31
0.0
  0
ARC
  5
1AE
100
AcDbEntity
  8
1
  6
SOLID
 62
        7
100
AcDbCircle
 10
16.882554684
 20
754.038775438
 30
0.0
 40
20.0
100
AcDbArc
 50
284.913719363
 51
47.630057865
  0
ARC
  5
1AF
100
AcDbEntity
  8
1
  6
SOLID
 62
        7
100
AcDbCircle
 10
16.882554684
 20
754.038775438
 30
0.0
 40
13.0
100
AcDbArc
 50
75.154224712
 51
255.522393777
  0
CIRCLE
  5
1B0
100
AcDbEntity
  8
1
  6
SOLID
 62
        7
100
AcDbCircle
 10
16.882554684
 20
754.038775438
 30
0.0
 40
10.0
  0
ARC
  5
1B1
100
AcDbEntity
  8
1
  6
SOLID
 62
        7
100
AcDbCircle
 10
16.882554684
 20
754.038775438
 30
0.0
 40
32.5
100
AcDbArc
 50
251.927785405
 51
243.101135375
  0
LINE
  5
1B2
100
AcDbEntity
  8
1
  6
SOLID
 62
        7
100
AcDbLine
 10
9.227297383
 20
734.72522035
 30
0.0
 11
7.39595125
 21
733.143603236
 31
0.0
  0
LINE
  5
1B3
100
AcDbEntity
  8
1
  6
SOLID
 62
        7
100
AcDbLine
 10
5.435748291
 20
730.849001776
 30
0.0
 11
3.403819583
 21
727.575338857
 31
0.0
  0
ARC
  5
1B4
100
AcDbEntity
  8
1
  6
SOLID
 62
        7
100
AcDbCircle
 10
16.882554684
 20
754.038775438
 30
0.0
 40
38.5
100
AcDbArc
 50
90.0
 51
161.744618104
  0
ARC
  5
1B5
100
AcDbEntity
  8
1
  6
SOLID
 62
        7
100
AcDbCircle
 10
16.882554684
 20
754.038775438
 30
0.0
 40
38.5
100
AcDbArc
 50
18.255381896
 51
90.0
  0
LINE
  5
1B6
100
AcDbEntity
  8
1
  6
SOLID
 62
        7
100
AcDbLine
 10
2.76664932
 20
726.373302543
 30
0.0
 11
-3.063933988
 21
713.293885933
 31
0.0
  0
LINE
  5
1B7
100
AcDbEntity
  8
1
  6
SOLID
 62
        7
100
AcDbLine
 10
-3.744288612
 20
711.142409693
 30
0.0
 11
-5.051396172
 21
704.461637718
 31
0.0
  0
LINE
  5
1B8
100
AcDbEntity
  8
1
  6
SOLID
 62
        7
100
AcDbLine
 10
-5.168975667
 20
703.70993413
 30
0.0
 11
-7.610636016
 21
682.955821157
 31
0.0
  0
LINE
  5
1B9
100
AcDbEntity
  8
1
  6
SOLID
 62
        7
100
AcDbLine
 10
-0.225463228
 20
702.93668294
 30
0.0
 11
-2.644882995
 21
682.371614919
 31
0.0
  0
LINE
  5
1BA
100
AcDbEntity
  8
1
  6
SOLID
 62
        7
100
AcDbLine
 10
1.053660692
 20
709.625169144
 30
0.0
 11
-0.107883733
 21
703.688386528
 31
0.0
  0
LINE
  5
1BB
100
AcDbEntity
  8
1
  6
SOLID
 62
        7
100
AcDbLine
 10
7.194631847
 20
724.026136522
 30
0.0
 11
1.734015315
 21
711.776645384
 31
0.0
  0
LINE
  5
1BC
100
AcDbEntity
  8
1
  6
SOLID
 62
        7
100
AcDbLine
 10
9.281461341
 20
727.563734931
 30
0.0
 11
7.83180211
 21
725.228172836
 31
0.0
  0
LINE
  5
1BD
100
AcDbEntity
  8
1
  6
SOLID
 62
        7
100
AcDbLine
 10
12.035286594
 20
730.543737463
 30
0.0
 11
11.2416643
 21
729.858336391
 31
0.0
  0
LINE
  5
1BE
100
AcDbEntity
  8
1
  6
SOLID
 62
        7
100
AcDbLine
 10
17.148616159
 20
733.470359085
 30
0.0
 11
14.039362349
 21
731.889533501
 31
0.0
  0
LINE
  5
1BF
100
AcDbEntity
  8
1
  6
SOLID
 62
        7
100
AcDbLine
 10
14.882554684
 20
737.927372143
 30
0.0
 11
16.868275982
 21
738.880506755
 31
0.0
  0
LINE
  5
1C0
100
AcDbEntity
  8
1
  6
SOLID
 62
        7
100
AcDbLine
 10
17.148616159
 20
733.470359085
 30
0.0
 11
19.832823359
 21
734.971429995
 31
0.0
  0
ARC
  5
1C1
100
AcDbEntity
  8
1
  6
SOLID
 62
        7
100
AcDbCircle
 10
15.763496086
 20
727.156990273
 30
0.0
 40
10.0
100
AcDbArc
 50
116.949969004
 51
130.815083875
  0
ARC
  5
1C2
100
AcDbEntity
  8
1
  6
SOLID
 62
        7
100
AcDbCircle
 10
13.932149953
 20
725.575373158
 30
0.0
 40
10.0
100
AcDbArc
 50
130.815083875
 51
148.172553423
  0
ARC
  5
1C3
100
AcDbEntity
  8
1
  6
SOLID
 62
        7
100
AcDbCircle
 10
11.900221245
 20
722.301710239
 30
0.0
 40
10.0
100
AcDbArc
 50
148.172553423
 51
155.973493421
  0
ARC
  5
1C4
100
AcDbEntity
  8
1
  6
SOLID
 62
        7
100
AcDbCircle
 10
18.571485298
 20
722.975507386
 30
0.0
 40
10.0
100
AcDbArc
 50
116.949969004
 51
130.815083875
  0
ARC
  5
1C5
100
AcDbEntity
  8
1
  6
SOLID
 62
        7
100
AcDbCircle
 10
17.777863003
 20
722.290106313
 30
0.0
 40
10.0
100
AcDbArc
 50
130.815083875
 51
148.172553423
  0
ARC
  5
1C6
100
AcDbEntity
  8
1
  6
SOLID
 62
        7
100
AcDbCircle
 10
16.328203772
 20
719.954544218
 30
0.0
 40
10.0
100
AcDbArc
 50
148.172553423
 51
155.973493421
  0
ARC
  5
1C7
100
AcDbEntity
  8
1
  6
SOLID
 62
        7
100
AcDbCircle
 10
10.86758724
 20
707.70505308
 30
0.0
 40
10.0
100
AcDbArc
 50
155.973493421
 51
168.929797422
  0
ARC
  5
1C8
100
AcDbEntity
  8
1
  6
SOLID
 62
        7
100
AcDbCircle
 10
9.706042816
 20
701.768270464
 30
0.0
 40
10.0
100
AcDbArc
 50
168.929797422
 51
173.290163192
  0
ARC
  5
1C9
100
AcDbEntity
  8
1
  6
SOLID
 62
        7
100
AcDbCircle
 10
4.762530377
 20
702.541521655
 30
0.0
 40
10.0
100
AcDbArc
 50
168.929797422
 51
173.290163192
  0
ARC
  5
1CA
100
AcDbEntity
  8
1
  6
SOLID
 62
        7
100
AcDbCircle
 10
6.069637937
 20
709.222293629
 30
0.0
 40
10.0
100
AcDbArc
 50
155.973493421
 51
168.929797422
  0
LINE
  5
1CB
100
AcDbEntity
  8
1
  6
SOLID
 62
        7
100
AcDbLine
 10
-7.610636016
 20
682.955821157
 30
0.0
 11
-6.721077097
 21
683.124083308
 31
0.0
  0
LINE
  5
1CC
100
AcDbEntity
  8
1
  6
SOLID
 62
        7
100
AcDbLine
 10
-6.721077097
 20
683.124083308
 30
0.0
 11
-6.260163003
 21
683.185538521
 31
0.0
  0
LINE
  5
1CD
100
AcDbEntity
  8
1
  6
SOLID
 62
        7
100
AcDbLine
 10
-6.260163003
 20
683.185538521
 30
0.0
 11
-5.399790027
 21
683.462086977
 31
0.0
  0
LINE
  5
1CE
100
AcDbEntity
  8
1
  6
SOLID
 62
        7
100
AcDbLine
 10
-5.399790027
 20
683.462086977
 30
0.0
 11
-4.87742072
 21
683.554269796
 31
0.0
  0
LINE
  5
1CF
100
AcDbEntity
  8
1
  6
SOLID
 62
        7
100
AcDbLine
 10
-4.87742072
 20
683.554269796
 30
0.0
 11
-3.924864926
 21
683.615725009
 31
0.0
  0
LINE
  5
1D0
100
AcDbEntity
  8
1
  6
SOLID
 62
        7
100
AcDbLine
 10
-3.924864926
 20
683.615725009
 30
0.0
 11
-3.463950831
 21
683.584997402
 31
0.0
  0
LINE
  5
1D1
100
AcDbEntity
  8
1
  6
SOLID
 62
        7
100
AcDbLine
 10
-3.463950831
 20
683.584997402
 30
0.0
 11
-3.125947162
 21
683.339176552
 31
0.0
  0
LINE
  5
1D2
100
AcDbEntity
  8
1
  6
SOLID
 62
        7
100
AcDbLine
 10
-3.125947162
 20
683.339176552
 30
0.0
 11
-2.757215887
 21
683.124083308
 31
0.0
  0
LINE
  5
1D3
100
AcDbEntity
  8
1
  6
SOLID
 62
        7
100
AcDbLine
 10
-2.757215887
 20
683.124083308
 30
0.0
 11
-2.665033068
 21
682.540258789
 31
0.0
  0
LINE
  5
1D4
100
AcDbEntity
  8
1
  6
SOLID
 62
        7
100
AcDbLine
 10
-2.665033068
 20
682.540258789
 30
0.0
 11
-2.603577856
 21
682.417348364
 31
0.0
  0
LINE
  5
1D5
100
AcDbEntity
  8
1
  6
SOLID
 62
        7
100
AcDbLine
 10
-2.603577856
 20
682.417348364
 30
0.0
 11
-2.603577856
 21
682.048617088
 31
0.0
  0
LINE
  5
1D6
100
AcDbEntity
  8
1
  6
SOLID
 62
        7
100
AcDbLine
 10
-2.603577856
 20
682.048617088
 30
0.0
 11
-3.033764343
 21
681.587702994
 31
0.0
  0
LINE
  5
1D7
100
AcDbEntity
  8
1
  6
SOLID
 62
        7
100
AcDbLine
 10
-3.033764343
 20
681.587702994
 30
0.0
 11
-4.355051414
 21
681.188244112
 31
0.0
  0
LINE
  5
1D8
100
AcDbEntity
  8
1
  6
SOLID
 62
        7
100
AcDbLine
 10
-4.355051414
 20
681.188244112
 30
0.0
 11
-5.307607208
 21
681.37260975
 31
0.0
  0
LINE
  5
1D9
100
AcDbEntity
  8
1
  6
SOLID
 62
        7
100
AcDbLine
 10
-5.307607208
 20
681.37260975
 30
0.0
 11
-6.260163003
 21
681.833523844
 31
0.0
  0
LINE
  5
1DA
100
AcDbEntity
  8
1
  6
SOLID
 62
        7
100
AcDbLine
 10
-6.260163003
 20
681.833523844
 30
0.0
 11
-6.997625554
 21
682.570986395
 31
0.0
  0
LINE
  5
1DB
100
AcDbEntity
  8
1
  6
SOLID
 62
        7
100
AcDbLine
 10
-6.997625554
 20
682.570986395
 30
0.0
 11
-7.366356829
 21
682.816807245
 31
0.0
  0
LINE
  5
1DC
100
AcDbEntity
  8
1
  6
SOLID
 62
        7
100
AcDbLine
 10
-7.366356829
 20
682.816807245
 30
0.0
 11
-7.610636016
 21
682.955821157
 31
0.0
  0
ARC
  5
1DD
100
AcDbEntity
  8
1
  6
SOLID
 62
        7
100
AcDbCircle
 10
16.882554684
 20
754.038775438
 30
0.0
 40
28.0
100
AcDbArc
 50
253.717331162
 51
243.302792201
  0
ARC
  5
1DE
100
AcDbEntity
  8
1
  6
SOLID
 62
        7
100
AcDbCircle
 10
16.882554684
 20
754.038775438
 30
0.0
 40
38.5
100
AcDbArc
 50
250.99723599
 51
270.0
  0
DIMENSION
  5
1EE
100
AcDbEntity
  8
1
  6
SOLID
 62
        7
100
AcDbDimension
  2
*D10
 10
-1051.775268555
 20
1046.637695313
 30
0.0
 11
-725.112365723
 21
1054.637695313
 31
0.0
  1
  695   
  3
10
100
AcDbAlignedDimension
 13
-360.85458374
 23
876.038696289
 33
0.0
 14
-1051.775268555
 24
804.349243164
 34
0.0
100
AcDbRotatedDimension
  0
LINE
  5
1EF
100
AcDbEntity
  8
1
  6
SOLID
 62
        7
100
AcDbLine
 10
-894.992665291
 20
656.163105011
 30
0.0
 11
-905.917020798
 21
656.163105011
 31
0.0
  0
ARC
  5
1F0
100
AcDbEntity
  8
1
  6
SOLID
 62
        7
100
AcDbCircle
 10
-901.487616435
 20
653.132016182
 30
0.0
 40
5.367226705
100
AcDbArc
 50
145.615745828
 51
214.384254172
  0
ARC
  5
1F1
100
AcDbEntity
  8
1
  6
SOLID
 62
        7
100
AcDbCircle
 10
-886.792669833
 20
644.038749695
 30
0.0
 40
20.062173307
100
AcDbArc
 50
162.412042639
 51
197.587957361
  0
ARC
  5
1F2
100
AcDbEntity
  8
1
  6
SOLID
 62
        7
100
AcDbCircle
 10
-901.487616435
 20
634.945483208
 30
0.0
 40
5.367226705
100
AcDbArc
 50
145.615745828
 51
214.384254172
  0
LINE
  5
1F3
100
AcDbEntity
  8
1
  6
SOLID
 62
        7
100
AcDbLine
 10
-905.917020798
 20
631.914394379
 30
0.0
 11
-894.992665291
 21
631.914394379
 31
0.0
  0
ARC
  5
1F4
100
AcDbEntity
  8
1
  6
SOLID
 62
        7
100
AcDbCircle
 10
-899.422069654
 20
634.945483208
 30
0.0
 40
5.367226705
100
AcDbArc
 50
325.615745828
 51
34.384254172
  0
ARC
  5
1F5
100
AcDbEntity
  8
1
  6
SOLID
 62
        7
100
AcDbCircle
 10
-914.117016256
 20
644.038749695
 30
0.0
 40
20.062173307
100
AcDbArc
 50
342.412042639
 51
17.587957361
  0
ARC
  5
1F6
100
AcDbEntity
  8
1
  6
SOLID
 62
        7
100
AcDbCircle
 10
-899.422069654
 20
653.132016182
 30
0.0
 40
5.367226705
100
AcDbArc
 50
325.615745828
 51
34.384254172
  0
LINE
  5
1F7
100
AcDbEntity
  8
1
  6
SOLID
 62
        7
100
AcDbLine
 10
-905.917020798
 20
650.100927353
 30
0.0
 11
-894.992665291
 21
650.100927353
 31
0.0
  0
LINE
  5
1F8
100
AcDbEntity
  8
1
  6
SOLID
 62
        7
100
AcDbLine
 10
-906.85484314
 20
653.132016182
 30
0.0
 11
-906.85484314
 21
634.945483208
 31
0.0
  0
LINE
  5
1F9
100
AcDbEntity
  8
1
  6
SOLID
 62
        7
100
AcDbLine
 10
-905.917020798
 20
637.976572037
 30
0.0
 11
-894.992665291
 21
637.976572037
 31
0.0
  0
LINE
  5
1FA
100
AcDbEntity
  8
1
  6
SOLID
 62
        7
100
AcDbLine
 10
-894.054842949
 20
634.945483208
 30
0.0
 11
-894.054842949
 21
653.132016182
 31
0.0
  0
LINE
  5
1FB
100
AcDbEntity
  8
1
  6
CENTER
 62
        7
100
AcDbLine
 10
-900.454857561
 20
644.038749695
 30
0.0
 11
-892.134857389
 21
644.038749695
 31
0.0
  0
LINE
  5
1FC
100
AcDbEntity
  8
1
  6
CENTER
 62
        7
100
AcDbLine
 10
-900.454857561
 20
644.038749695
 30
0.0
 11
-908.774857733
 21
644.038749695
 31
0.0
  0
LINE
  5
1FD
100
AcDbEntity
  8
1
  6
SOLID
 62
        7
100
AcDbLine
 10
-516.992695808
 20
656.163105011
 30
0.0
 11
-527.917051315
 21
656.163105011
 31
0.0
  0
ARC
  5
1FE
100
AcDbEntity
  8
1
  6
SOLID
 62
        7
100
AcDbCircle
 10
-523.487646952
 20
653.132016182
 30
0.0
 40
5.367226705
100
AcDbArc
 50
145.615745828
 51
214.384254172
  0
ARC
  5
1FF
100
AcDbEntity
  8
1
  6
SOLID
 62
        7
100
AcDbCircle
 10
-508.79270035
 20
644.038749695
 30
0.0
 40
20.062173307
100
AcDbArc
 50
162.412042639
 51
197.587957361
  0
ARC
  5
200
100
AcDbEntity
  8
1
  6
SOLID
 62
        7
100
AcDbCircle
 10
-523.487646952
 20
634.945483208
 30
0.0
 40
5.367226705
100
AcDbArc
 50
145.615745828
 51
214.384254172
  0
LINE
  5
201
100
AcDbEntity
  8
1
  6
SOLID
 62
        7
100
AcDbLine
 10
-527.917051315
 20
631.914394379
 30
0.0
 11
-516.992695808
 21
631.914394379
 31
0.0
  0
ARC
  5
202
100
AcDbEntity
  8
1
  6
SOLID
 62
        7
100
AcDbCircle
 10
-521.422100171
 20
634.945483208
 30
0.0
 40
5.367226705
100
AcDbArc
 50
325.615745828
 51
34.384254172
  0
ARC
  5
203
100
AcDbEntity
  8
1
  6
SOLID
 62
        7
100
AcDbCircle
 10
-536.117046774
 20
644.038749695
 30
0.0
 40
20.062173307
100
AcDbArc
 50
342.412042639
 51
17.587957361
  0
ARC
  5
204
100
AcDbEntity
  8
1
  6
SOLID
 62
        7
100
AcDbCircle
 10
-521.422100171
 20
653.132016182
 30
0.0
 40
5.367226705
100
AcDbArc
 50
325.615745828
 51
34.384254172
  0
LINE
  5
205
100
AcDbEntity
  8
1
  6
SOLID
 62
        7
100
AcDbLine
 10
-527.917051315
 20
650.100927353
 30
0.0
 11
-516.992695808
 21
650.100927353
 31
0.0
  0
LINE
  5
206
100
AcDbEntity
  8
1
  6
SOLID
 62
        7
100
AcDbLine
 10
-528.854873657
 20
653.132016182
 30
0.0
 11
-528.854873657
 21
634.945483208
 31
0.0
  0
LINE
  5
207
100
AcDbEntity
  8
1
  6
SOLID
 62
        7
100
AcDbLine
 10
-527.917051315
 20
637.976572037
 30
0.0
 11
-516.992695808
 21
637.976572037
 31
0.0
  0
LINE
  5
208
100
AcDbEntity
  8
1
  6
SOLID
 62
        7
100
AcDbLine
 10
-516.054873466
 20
634.945483208
 30
0.0
 11
-516.054873466
 21
653.132016182
 31
0.0
  0
LINE
  5
209
100
AcDbEntity
  8
1
  6
SOLID
 62
        7
100
AcDbLine
 10
-894.992665291
 20
851.914394379
 30
0.0
 11
-905.917020798
 21
851.914394379
 31
0.0
  0
ARC
  5
20A
100
AcDbEntity
  8
1
  6
SOLID
 62
        7
100
AcDbCircle
 10
-901.487616435
 20
854.945483208
 30
0.0
 40
5.367226705
100
AcDbArc
 50
145.615745828
 51
214.384254172
  0
ARC
  5
20B
100
AcDbEntity
  8
1
  6
SOLID
 62
        7
100
AcDbCircle
 10
-886.792669833
 20
864.038749695
 30
0.0
 40
20.062173307
100
AcDbArc
 50
162.412042639
 51
197.587957361
  0
ARC
  5
20C
100
AcDbEntity
  8
1
  6
SOLID
 62
        7
100
AcDbCircle
 10
-901.487616435
 20
873.132016182
 30
0.0
 40
5.367226705
100
AcDbArc
 50
145.615745828
 51
214.384254172
  0
LINE
  5
20D
100
AcDbEntity
  8
1
  6
SOLID
 62
        7
100
AcDbLine
 10
-905.917020798
 20
876.163105011
 30
0.0
 11
-894.992665291
 21
876.163105011
 31
0.0
  0
ARC
  5
20E
100
AcDbEntity
  8
1
  6
SOLID
 62
        7
100
AcDbCircle
 10
-899.422069654
 20
873.132016182
 30
0.0
 40
5.367226705
100
AcDbArc
 50
325.615745828
 51
34.384254172
  0
ARC
  5
20F
100
AcDbEntity
  8
1
  6
SOLID
 62
        7
100
AcDbCircle
 10
-914.117016256
 20
864.038749695
 30
0.0
 40
20.062173307
100
AcDbArc
 50
342.412042639
 51
17.587957361
  0
ARC
  5
210
100
AcDbEntity
  8
1
  6
SOLID
 62
        7
100
AcDbCircle
 10
-899.422069654
 20
854.945483208
 30
0.0
 40
5.367226705
100
AcDbArc
 50
325.615745828
 51
34.384254172
  0
LINE
  5
211
100
AcDbEntity
  8
1
  6
SOLID
 62
        7
100
AcDbLine
 10
-905.917020798
 20
857.976572037
 30
0.0
 11
-894.992665291
 21
857.976572037
 31
0.0
  0
LINE
  5
212
100
AcDbEntity
  8
1
  6
SOLID
 62
        7
100
AcDbLine
 10
-906.85484314
 20
854.945483208
 30
0.0
 11
-906.85484314
 21
873.132016182
 31
0.0
  0
LINE
  5
213
100
AcDbEntity
  8
1
  6
SOLID
 62
        7
100
AcDbLine
 10
-905.917020798
 20
870.100927353
 30
0.0
 11
-894.992665291
 21
870.100927353
 31
0.0
  0
LINE
  5
214
100
AcDbEntity
  8
1
  6
SOLID
 62
        7
100
AcDbLine
 10
-894.054842949
 20
873.132016182
 30
0.0
 11
-894.054842949
 21
854.945483208
 31
0.0
  0
LINE
  5
215
100
AcDbEntity
  8
1
  6
CENTER
 62
        7
100
AcDbLine
 10
-900.454857561
 20
864.038749695
 30
0.0
 11
-892.134857389
 21
864.038749695
 31
0.0
  0
LINE
  5
216
100
AcDbEntity
  8
1
  6
CENTER
 62
        7
100
AcDbLine
 10
-900.454857561
 20
864.038749695
 30
0.0
 11
-908.774857733
 21
864.038749695
 31
0.0
  0
LINE
  5
217
100
AcDbEntity
  8
1
  6
SOLID
 62
        7
100
AcDbLine
 10
-516.992695808
 20
851.914394379
 30
0.0
 11
-527.917051315
 21
851.914394379
 31
0.0
  0
ARC
  5
218
100
AcDbEntity
  8
1
  6
SOLID
 62
        7
100
AcDbCircle
 10
-523.487646952
 20
854.945483208
 30
0.0
 40
5.367226705
100
AcDbArc
 50
145.615745828
 51
214.384254172
  0
ARC
  5
219
100
AcDbEntity
  8
1
  6
SOLID
 62
        7
100
AcDbCircle
 10
-508.79270035
 20
864.038749695
 30
0.0
 40
20.062173307
100
AcDbArc
 50
162.412042639
 51
197.587957361
  0
ARC
  5
21A
100
AcDbEntity
  8
1
  6
SOLID
 62
        7
100
AcDbCircle
 10
-523.487646952
 20
873.132016182
 30
0.0
 40
5.367226705
100
AcDbArc
 50
145.615745828
 51
214.384254172
  0
LINE
  5
21B
100
AcDbEntity
  8
1
  6
SOLID
 62
        7
100
AcDbLine
 10
-527.917051315
 20
876.163105011
 30
0.0
 11
-516.992695808
 21
876.163105011
 31
0.0
  0
ARC
  5
21C
100
AcDbEntity
  8
1
  6
SOLID
 62
        7
100
AcDbCircle
 10
-521.422100171
 20
873.132016182
 30
0.0
 40
5.367226705
100
AcDbArc
 50
325.615745828
 51
34.384254172
  0
ARC
  5
21D
100
AcDbEntity
  8
1
  6
SOLID
 62
        7
100
AcDbCircle
 10
-536.117046774
 20
864.038749695
 30
0.0
 40
20.062173307
100
AcDbArc
 50
342.412042639
 51
17.587957361
  0
ARC
  5
21E
100
AcDbEntity
  8
1
  6
SOLID
 62
        7
100
AcDbCircle
 10
-521.422100171
 20
854.945483208
 30
0.0
 40
5.367226705
100
AcDbArc
 50
325.615745828
 51
34.384254172
  0
LINE
  5
21F
100
AcDbEntity
  8
1
  6
SOLID
 62
        7
100
AcDbLine
 10
-527.917051315
 20
857.976572037
 30
0.0
 11
-516.992695808
 21
857.976572037
 31
0.0
  0
LINE
  5
220
100
AcDbEntity
  8
1
  6
SOLID
 62
        7
100
AcDbLine
 10
-528.854873657
 20
854.945483208
 30
0.0
 11
-528.854873657
 21
873.132016182
 31
0.0
  0
LINE
  5
221
100
AcDbEntity
  8
1
  6
SOLID
 62
        7
100
AcDbLine
 10
-527.917051315
 20
870.100927353
 30
0.0
 11
-516.992695808
 21
870.100927353
 31
0.0
  0
LINE
  5
222
100
AcDbEntity
  8
1
  6
SOLID
 62
        7
100
AcDbLine
 10
-516.054873466
 20
873.132016182
 30
0.0
 11
-516.054873466
 21
854.945483208
 31
0.0
  0
ARC
  5
223
100
AcDbEntity
  8
1
  6
SOLID
 62
        7
100
AcDbCircle
 10
-927.097541841
 20
930.038771881
 30
0.0
 40
3.0
100
AcDbArc
 50
45.0
 51
90.0
  0
ARC
  5
224
100
AcDbEntity
  8
1
  6
SOLID
 62
        7
100
AcDbCircle
 10
-927.097541841
 20
930.038771881
 30
0.0
 40
8.0
100
AcDbArc
 50
45.0
 51
90.0
  0
ARC
  5
225
100
AcDbEntity
  8
1
  6
SOLID
 62
        7
100
AcDbCircle
 10
-921.854901154
 20
924.796131194
 30
0.0
 40
8.0
100
AcDbArc
 50
360.0
 51
45.0
  0
ARC
  5
226
100
AcDbEntity
  8
1
  6
SOLID
 62
        7
100
AcDbCircle
 10
-921.854901154
 20
924.796131194
 30
0.0
 40
3.0
100
AcDbArc
 50
360.0
 51
45.0
  0
LINE
  5
227
100
AcDbEntity
  8
1
  6
CENTER
 62
        7
100
AcDbLine
 10
-905.708327934
 20
914.038771881
 30
0.0
 11
-922.841406603
 21
914.038771881
 31
0.0
  0
LINE
  5
228
100
AcDbEntity
  8
1
  6
SOLID
 62
        7
100
AcDbLine
 10
-918.854901154
 20
924.796131194
 30
0.0
 11
-918.854901154
 21
903.038771881
 31
0.0
  0
LINE
  5
229
100
AcDbEntity
  8
1
  6
SOLID
 62
        7
100
AcDbLine
 10
-913.854901154
 20
924.796131194
 30
0.0
 11
-913.854901154
 21
903.038771881
 31
0.0
  0
LINE
  5
22A
100
AcDbEntity
  8
1
  6
SOLID
 62
        7
100
AcDbLine
 10
-555.360386244
 20
900.758168862
 30
0.0
 11
-555.360386244
 21
896.438725308
 31
0.0
  0
LINE
  5
22B
100
AcDbEntity
  8
1
  6
SOLID
 62
        7
100
AcDbLine
 10
-555.360386244
 20
896.438725308
 30
0.0
 11
-540.349278799
 21
896.438725308
 31
0.0
  0
LINE
  5
22C
100
AcDbEntity
  8
1
  6
SOLID
 62
        7
100
AcDbLine
 10
-540.349278799
 20
896.438725308
 30
0.0
 11
-540.349278799
 21
900.758168862
 31
0.0
  0
ARC
  5
22D
100
AcDbEntity
  8
1
  6
SOLID
 62
        7
100
AcDbCircle
 10
-542.22566723
 20
898.016155964
 30
0.0
 40
3.322569529
100
AcDbArc
 50
55.615750846
 51
124.384249154
  0
LINE
  5
22E
100
AcDbEntity
  8
1
  6
SOLID
 62
        7
100
AcDbLine
 10
-544.102055661
 20
900.758168862
 30
0.0
 11
-544.102055661
 21
896.438725308
 31
0.0
  0
ARC
  5
22F
100
AcDbEntity
  8
1
  6
SOLID
 62
        7
100
AcDbCircle
 10
-547.854832522
 20
888.919282325
 30
0.0
 40
12.419443168
100
AcDbArc
 50
72.412045324
 51
107.587954676
  0
LINE
  5
230
100
AcDbEntity
  8
1
  6
SOLID
 62
        7
100
AcDbLine
 10
-551.607609383
 20
900.758168862
 30
0.0
 11
-551.607609383
 21
896.438725308
 31
0.0
  0
ARC
  5
231
100
AcDbEntity
  8
1
  6
SOLID
 62
        7
100
AcDbCircle
 10
-553.483997814
 20
898.016155964
 30
0.0
 40
3.322569529
100
AcDbArc
 50
55.615750846
 51
124.384249154
  0
LINE
  5
232
100
AcDbEntity
  8
1
  6
SOLID
 62
        7
100
AcDbLine
 10
-553.483997814
 20
901.338725493
 30
0.0
 11
-542.22566723
 21
901.338725493
 31
0.0
  0
LINE
  5
233
100
AcDbEntity
  8
1
  6
SOLID
 62
        7
100
AcDbLine
 10
-553.669832579
 20
896.438725308
 30
0.0
 11
-553.669832579
 21
896.038725303
 31
0.0
  0
LINE
  5
234
100
AcDbEntity
  8
1
  6
SOLID
 62
        7
100
AcDbLine
 10
-553.669832579
 20
896.038725303
 30
0.0
 11
-542.039832465
 21
896.038725303
 31
0.0
  0
LINE
  5
235
100
AcDbEntity
  8
1
  6
SOLID
 62
        7
100
AcDbLine
 10
-542.039832465
 20
896.038725303
 30
0.0
 11
-542.039832465
 21
896.438725308
 31
0.0
  0
ARC
  5
236
100
AcDbEntity
  8
1
  6
SOLID
 62
        7
100
AcDbCircle
 10
-531.854857656
 20
904.281365247
 30
0.0
 40
3.0
100
AcDbArc
 50
315.0
 51
0.0
  0
ARC
  5
237
100
AcDbEntity
  8
1
  6
SOLID
 62
        7
100
AcDbCircle
 10
-531.854857656
 20
904.281365247
 30
0.0
 40
8.0
100
AcDbArc
 50
315.0
 51
0.0
  0
ARC
  5
238
100
AcDbEntity
  8
1
  6
SOLID
 62
        7
100
AcDbCircle
 10
-537.097498343
 20
899.03872456
 30
0.0
 40
8.0
100
AcDbArc
 50
270.0
 51
315.0
  0
ARC
  5
239
100
AcDbEntity
  8
1
  6
SOLID
 62
        7
100
AcDbCircle
 10
-537.097498343
 20
899.03872456
 30
0.0
 40
3.0
100
AcDbArc
 50
270.0
 51
315.0
  0
LINE
  5
23A
100
AcDbEntity
  8
1
  6
CENTER
 62
        7
100
AcDbLine
 10
-547.854857656
 20
882.892151341
 30
0.0
 11
-547.854857656
 21
900.025230009
 31
0.0
  0
LINE
  5
23B
100
AcDbEntity
  8
1
  6
SOLID
 62
        7
100
AcDbLine
 10
-537.097498343
 20
896.03872456
 30
0.0
 11
-558.854857656
 21
896.03872456
 31
0.0
  0
LINE
  5
23C
100
AcDbEntity
  8
1
  6
SOLID
 62
        7
100
AcDbLine
 10
-913.854901154
 20
903.038771881
 30
0.0
 11
-918.854901154
 21
903.038771881
 31
0.0
  0
LINE
  5
23D
100
AcDbEntity
  8
1
  6
SOLID
 62
        7
100
AcDbLine
 10
-927.097541841
 20
933.038771881
 30
0.0
 11
-981.854901154
 21
933.038771881
 31
0.0
  0
LINE
  5
23E
100
AcDbEntity
  8
1
  6
SOLID
 62
        7
100
AcDbLine
 10
-537.097498343
 20
891.03872456
 30
0.0
 11
-558.854857656
 21
891.03872456
 31
0.0
  0
LINE
  5
23F
100
AcDbEntity
  8
1
  6
SOLID
 62
        7
100
AcDbLine
 10
-558.854857656
 20
891.03872456
 30
0.0
 11
-558.854857656
 21
896.03872456
 31
0.0
  0
LINE
  5
240
100
AcDbEntity
  8
1
  6
SOLID
 62
        7
100
AcDbLine
 10
-528.854857656
 20
904.281365247
 30
0.0
 11
-528.854857656
 21
959.03872456
 31
0.0
  0
LINE
  5
241
100
AcDbEntity
  8
1
  6
SOLID
 62
        7
100
AcDbLine
 10
-508.854872915
 20
857.038749695
 30
0.0
 11
-507.854872915
 21
858.038749695
 31
0.0
  0
LINE
  5
242
100
AcDbEntity
  8
1
  6
SOLID
 62
        7
100
AcDbLine
 10
-508.854872915
 20
871.038749695
 30
0.0
 11
-507.854872915
 21
870.038749695
 31
0.0
  0
LINE
  5
243
100
AcDbEntity
  8
1
  6
SOLID
 62
        7
100
AcDbLine
 10
-507.854872915
 20
858.038749695
 30
0.0
 11
-507.854872915
 21
870.038749695
 31
0.0
  0
LINE
  5
244
100
AcDbEntity
  8
1
  6
SOLID
 62
        7
100
AcDbLine
 10
-512.854872915
 20
858.238749743
 30
0.0
 11
-507.854872915
 21
858.238749743
 31
0.0
  0
LINE
  5
245
100
AcDbEntity
  8
1
  6
SOLID
 62
        7
100
AcDbLine
 10
-512.854872915
 20
869.838749647
 30
0.0
 11
-507.854872915
 21
869.838749647
 31
0.0
  0
LINE
  5
246
100
AcDbEntity
  8
1
  6
SOLID
 62
        7
100
AcDbLine
 10
-508.854872915
 20
857.038749695
 30
0.0
 11
-508.854872915
 21
871.038749695
 31
0.0
  0
ARC
  5
247
100
AcDbEntity
  8
1
  6
SOLID
 62
        7
100
AcDbCircle
 10
-514.854872915
 20
855.538749695
 30
0.0
 40
2.0
100
AcDbArc
 50
270.0
 51
0.0
  0
LINE
  5
248
100
AcDbEntity
  8
1
  6
SOLID
 62
        7
100
AcDbLine
 10
-523.854857656
 20
904.281365247
 30
0.0
 11
-523.854857656
 21
959.03872456
 31
0.0
  0
ARC
  5
249
100
AcDbEntity
  8
1
  6
SOLID
 62
        7
100
AcDbCircle
 10
-514.854872915
 20
872.538749695
 30
0.0
 40
2.0
100
AcDbArc
 50
0.0
 51
90.0
  0
LINE
  5
24A
100
AcDbEntity
  8
1
  6
SOLID
 62
        7
100
AcDbLine
 10
-516.242503341
 20
853.538749695
 30
0.0
 11
-514.854872915
 21
853.538749695
 31
0.0
  0
LINE
  5
24B
100
AcDbEntity
  8
1
  6
SOLID
 62
        7
100
AcDbLine
 10
-516.242503341
 20
874.538749695
 30
0.0
 11
-514.854872915
 21
874.538749695
 31
0.0
  0
LINE
  5
24C
100
AcDbEntity
  8
1
  6
SOLID
 62
        7
100
AcDbLine
 10
-512.854872915
 20
855.538749695
 30
0.0
 11
-512.854872915
 21
872.538749695
 31
0.0
  0
LINE
  5
24D
100
AcDbEntity
  8
1
  6
SOLID
 62
        7
100
AcDbLine
 10
-512.854872915
 20
857.038749695
 30
0.0
 11
-508.854872915
 21
857.038749695
 31
0.0
  0
LINE
  5
24E
100
AcDbEntity
  8
1
  6
SOLID
 62
        7
100
AcDbLine
 10
-512.854872915
 20
871.038749695
 30
0.0
 11
-508.854872915
 21
871.038749695
 31
0.0
  0
LINE
  5
24F
100
AcDbEntity
  8
1
  6
SOLID
 62
        7
100
AcDbLine
 10
-531.440644094
 20
893.381870311
 30
0.0
 11
-526.198003407
 21
898.624510998
 31
0.0
  0
LINE
  5
250
100
AcDbEntity
  8
1
  6
SOLID
 62
        7
100
AcDbLine
 10
-534.976178
 20
896.917404217
 30
0.0
 11
-529.733537313
 21
902.160044904
 31
0.0
  0
LINE
  5
251
100
AcDbEntity
  8
1
  6
SOLID
 62
        7
100
AcDbLine
 10
-523.854857656
 20
959.03872456
 30
0.0
 11
-528.854857656
 21
959.03872456
 31
0.0
  0
ARC
  5
252
100
AcDbEntity
  8
1
  6
SOLID
 62
        7
100
AcDbCircle
 10
-518.854872915
 20
739.038749695
 30
0.0
 40
10.0
100
AcDbArc
 50
125.235881258
 51
180.0
  0
ARC
  5
253
100
AcDbEntity
  8
1
  6
SOLID
 62
        7
100
AcDbCircle
 10
-553.854872915
 20
739.038749695
 30
0.0
 40
10.0
100
AcDbArc
 50
0.0
 51
63.661444203
  0
LINE
  5
254
100
AcDbEntity
  8
1
  6
SOLID
 62
        7
100
AcDbLine
 10
-508.854872915
 20
651.038749695
 30
0.0
 11
-507.854872915
 21
650.038749695
 31
0.0
  0
ARC
  5
255
100
AcDbEntity
  8
1
  6
SOLID
 62
        7
100
AcDbCircle
 10
-518.854872915
 20
769.038749695
 30
0.0
 40
10.0
100
AcDbArc
 50
180.0
 51
234.685305238
  0
LINE
  5
256
100
AcDbEntity
  8
1
  6
SOLID
 62
        7
100
AcDbLine
 10
-508.854872915
 20
637.038749695
 30
0.0
 11
-507.854872915
 21
638.038749695
 31
0.0
  0
LINE
  5
257
100
AcDbEntity
  8
1
  6
SOLID
 62
        7
100
AcDbLine
 10
-507.854872915
 20
650.038749695
 30
0.0
 11
-507.854872915
 21
638.038749695
 31
0.0
  0
ARC
  5
258
100
AcDbEntity
  8
1
  6
SOLID
 62
        7
100
AcDbCircle
 10
-553.854872915
 20
769.038749695
 30
0.0
 40
10.0
100
AcDbArc
 50
302.093034625
 51
0.0
  0
LINE
  5
259
100
AcDbEntity
  8
1
  6
SOLID
 62
        7
100
AcDbLine
 10
-512.854872915
 20
649.838749647
 30
0.0
 11
-507.854872915
 21
649.838749647
 31
0.0
  0
LINE
  5
25A
100
AcDbEntity
  8
1
  6
SOLID
 62
        7
100
AcDbLine
 10
-894.054842949
 20
857.038749695
 30
0.0
 11
-841.854902658
 21
857.038749695
 31
0.0
  0
LINE
  5
25B
100
AcDbEntity
  8
1
  6
SOLID
 62
        7
100
AcDbLine
 10
-841.854902658
 20
866.638745585
 30
0.0
 11
-571.854857656
 21
866.638745585
 31
0.0
  0
LINE
  5
25C
100
AcDbEntity
  8
1
  6
SOLID
 62
        7
100
AcDbLine
 10
-567.854857656
 20
891.03872456
 30
0.0
 11
-567.854857656
 21
871.038749695
 31
0.0
  0
LINE
  5
25D
100
AcDbEntity
  8
1
  6
SOLID
 62
        7
100
AcDbLine
 10
-571.854857656
 20
857.038749695
 30
0.0
 11
-543.854872915
 21
857.038749695
 31
0.0
  0
LINE
  5
25E
100
AcDbEntity
  8
1
  6
SOLID
 62
        7
100
AcDbLine
 10
-894.054842949
 20
871.038749695
 30
0.0
 11
-543.854872915
 21
871.038749695
 31
0.0
  0
LINE
  5
25F
100
AcDbEntity
  8
1
  6
SOLID
 62
        7
100
AcDbLine
 10
-528.854872915
 20
769.038749695
 30
0.0
 11
-528.854872915
 21
889.03872456
 31
0.0
  0
ARC
  5
260
100
AcDbEntity
  8
1
  6
SOLID
 62
        7
100
AcDbCircle
 10
-530.854872915
 20
889.03872456
 30
0.0
 40
2.0
100
AcDbArc
 50
360.0
 51
90.0
  0
LINE
  5
261
100
AcDbEntity
  8
1
  6
SOLID
 62
        7
100
AcDbLine
 10
-541.854872915
 20
891.03872456
 30
0.0
 11
-530.854872915
 21
891.03872456
 31
0.0
  0
ARC
  5
262
100
AcDbEntity
  8
1
  6
SOLID
 62
        7
100
AcDbCircle
 10
-541.854872915
 20
889.03872456
 30
0.0
 40
2.0
100
AcDbArc
 50
90.0
 51
180.0
  0
LINE
  5
263
100
AcDbEntity
  8
1
  6
SOLID
 62
        7
100
AcDbLine
 10
-543.854872915
 20
769.038749695
 30
0.0
 11
-543.854872915
 21
889.03872456
 31
0.0
  0
LINE
  5
264
100
AcDbEntity
  8
1
  6
CENTER
 62
        7
100
AcDbLine
 10
-566.41760903
 20
864.038749695
 30
0.0
 11
-500.758513427
 21
864.038749695
 31
0.0
  0
LINE
  5
265
100
AcDbEntity
  8
1
  6
SOLID
 62
        7
100
AcDbLine
 10
-512.854872915
 20
638.238749743
 30
0.0
 11
-507.854872915
 21
638.238749743
 31
0.0
  0
DIMENSION
  5
275
100
AcDbEntity
  8
1
  6
SOLID
 62
        7
100
AcDbDimension
  2
*D11
 10
-1068.57800293
 20
574.038696289
 30
0.0
 11
-1076.57800293
 21
645.241149902
 31
0.0
  3
11
100
AcDbAlignedDimension
 13
-1031.330444336
 23
754.038696289
 33
0.0
 14
-918.854858398
 24
574.038696289
 34
0.0
 50
90.0
100
AcDbRotatedDimension
  0
LINE
  5
276
100
AcDbEntity
  8
1
  6
SOLID
 62
        7
100
AcDbLine
 10
-508.854872915
 20
651.038749695
 30
0.0
 11
-508.854872915
 21
637.038749695
 31
0.0
  0
LINE
  5
277
100
AcDbEntity
  8
1
  6
SOLID
 62
        7
100
AcDbLine
 10
-841.854878058
 20
622.038719177
 30
0.0
 11
-845.854857656
 21
622.038719177
 31
0.0
  0
LINE
  5
278
100
AcDbEntity
  8
1
  6
SOLID
 62
        7
100
AcDbLine
 10
-493.854872915
 20
649.038721869
 30
0.0
 11
-493.854872915
 21
574.038721869
 31
0.0
  0
LINE
  5
279
100
AcDbEntity
  8
1
  6
SOLID
 62
        7
100
AcDbLine
 10
-567.854857656
 20
857.038749695
 30
0.0
 11
-567.854857656
 21
754.038749695
 31
0.0
  0
LINE
  5
27A
100
AcDbEntity
  8
1
  6
SOLID
 62
        7
100
AcDbLine
 10
-571.854882257
 20
622.038719177
 30
0.0
 11
-567.854882257
 21
622.038719177
 31
0.0
  0
LINE
  5
27B
100
AcDbEntity
  8
1
  6
SOLID
 62
        7
100
AcDbLine
 10
-706.854880157
 20
587.038719177
 30
0.0
 11
-571.85488878
 21
587.038719177
 31
0.0
  0
LINE
  5
27C
100
AcDbEntity
  8
1
  6
SOLID
 62
        7
100
AcDbLine
 10
-841.854902658
 20
866.638745585
 30
0.0
 11
-841.854902658
 21
754.038749695
 31
0.0
  0
LINE
  5
27D
100
AcDbEntity
  8
1
  6
SOLID
 62
        7
100
AcDbLine
 10
-713.854901154
 20
1019.038602911
 30
0.0
 11
-913.854901154
 21
1019.038602911
 31
0.0
  0
ARC
  5
27E
100
AcDbEntity
  8
1
  6
SOLID
 62
        7
100
AcDbCircle
 10
-514.854872915
 20
652.538749695
 30
0.0
 40
2.0
100
AcDbArc
 50
0.0
 51
90.0
  0
LINE
  5
27F
100
AcDbEntity
  8
1
  6
SOLID
 62
        7
100
AcDbLine
 10
-571.854857656
 20
866.638745585
 30
0.0
 11
-571.854857656
 21
754.038749695
 31
0.0
  0
LINE
  5
280
100
AcDbEntity
  8
1
  6
SOLID
 62
        7
100
AcDbLine
 10
-488.854872915
 20
859.038721869
 30
0.0
 11
-489.854872915
 21
859.038721869
 31
0.0
  0
LINE
  5
281
100
AcDbEntity
  8
1
  6
SOLID
 62
        7
100
AcDbLine
 10
-567.854883002
 20
618.038746667
 30
0.0
 11
-567.854882257
 21
622.038746667
 31
0.0
  0
LINE
  5
282
100
AcDbEntity
  8
1
  6
SOLID
 62
        7
100
AcDbLine
 10
-528.854872915
 20
739.038749695
 30
0.0
 11
-528.854872915
 21
596.038721869
 31
0.0
  0
ARC
  5
283
100
AcDbEntity
  8
1
  6
SOLID
 62
        7
100
AcDbCircle
 10
-530.854872915
 20
596.038721869
 30
0.0
 40
2.0
100
AcDbArc
 50
270.0
 51
0.0
  0
LINE
  5
284
100
AcDbEntity
  8
1
  6
SOLID
 62
        7
100
AcDbLine
 10
-541.854872915
 20
594.038721869
 30
0.0
 11
-530.854872915
 21
594.038721869
 31
0.0
  0
ARC
  5
285
100
AcDbEntity
  8
1
  6
SOLID
 62
        7
100
AcDbCircle
 10
-541.854872915
 20
596.038721869
 30
0.0
 40
2.0
100
AcDbArc
 50
180.0
 51
270.0
  0
LINE
  5
286
100
AcDbEntity
  8
1
  6
SOLID
 62
        7
100
AcDbLine
 10
-543.854872915
 20
739.038749695
 30
0.0
 11
-543.854872915
 21
574.038721869
 31
0.0
  0
ARC
  5
287
100
AcDbEntity
  8
1
  6
SOLID
 62
        7
100
AcDbCircle
 10
-546.854872915
 20
614.03872456
 30
0.0
 40
3.0
100
AcDbArc
 50
0.0
 51
90.0
  0
LINE
  5
288
100
AcDbEntity
  8
1
  6
SOLID
 62
        7
100
AcDbLine
 10
-523.854872915
 20
617.038719177
 30
0.0
 11
-503.854872915
 21
617.038719177
 31
0.0
  0
LINE
  5
289
100
AcDbEntity
  8
1
  6
SOLID
 62
        7
100
AcDbLine
 10
-499.098805347
 20
605.378467831
 30
0.0
 11
-526.907473508
 21
605.378467831
 31
0.0
  0
LINE
  5
28A
100
AcDbEntity
  8
1
  6
SOLID
 62
        7
100
AcDbLine
 10
-567.854857656
 20
891.03872456
 30
0.0
 11
-495.854872915
 21
891.03872456
 31
0.0
  0
ARC
  5
28B
100
AcDbEntity
  8
1
  6
SOLID
 62
        7
100
AcDbCircle
 10
-523.854872915
 20
612.038719177
 30
0.0
 40
5.0
100
AcDbArc
 50
90.0
 51
180.0
  0
LINE
  5
28C
100
AcDbEntity
  8
1
  6
SOLID
 62
        7
100
AcDbLine
 10
-567.854883189
 20
617.03872456
 30
0.0
 11
-546.854872915
 21
617.03872456
 31
0.0
  0
LINE
  5
28D
100
AcDbEntity
  8
1
  6
SOLID
 62
        7
100
AcDbLine
 10
-493.854872915
 20
574.038721869
 30
0.0
 11
-543.854872915
 21
574.038721869
 31
0.0
  0
LINE
  5
28E
100
AcDbEntity
  8
1
  6
L_DASH
 62
        7
100
AcDbLine
 10
-494.854872915
 20
614.038721869
 30
0.0
 11
-527.854872915
 21
614.038721869
 31
0.0
  0
LINE
  5
28F
100
AcDbEntity
  8
1
  6
L_DASH
 62
        7
100
AcDbLine
 10
-510.354872915
 20
614.038721869
 30
0.0
 11
-510.354872915
 21
574.038721869
 31
0.0
  0
LINE
  5
290
100
AcDbEntity
  8
1
  6
L_DASH
 62
        7
100
AcDbLine
 10
-523.354872915
 20
614.038721869
 30
0.0
 11
-523.354872915
 21
574.038721869
 31
0.0
  0
LINE
  5
291
100
AcDbEntity
  8
1
  6
L_DASH
 62
        7
100
AcDbLine
 10
-508.854872915
 20
614.038721869
 30
0.0
 11
-508.854872915
 21
574.038721869
 31
0.0
  0
LINE
  5
292
100
AcDbEntity
  8
1
  6
L_DASH
 62
        7
100
AcDbLine
 10
-524.854872915
 20
614.038721869
 30
0.0
 11
-524.854872915
 21
574.038721869
 31
0.0
  0
LINE
  5
293
100
AcDbEntity
  8
1
  6
SOLID
 62
        7
100
AcDbLine
 10
-487.854872915
 20
835.038749695
 30
0.0
 11
-487.854872915
 21
858.038721869
 31
0.0
  0
ARC
  5
294
100
AcDbEntity
  8
1
  6
SOLID
 62
        7
100
AcDbCircle
 10
-488.854872915
 20
858.038721869
 30
0.0
 40
1.0
100
AcDbArc
 50
0.0
 51
90.0
  0
LINE
  5
295
100
AcDbEntity
  8
1
  6
SOLID
 62
        7
100
AcDbLine
 10
-493.854872915
 20
889.03872456
 30
0.0
 11
-493.854872915
 21
754.038749695
 31
0.0
  0
ARC
  5
296
100
AcDbEntity
  8
1
  6
SOLID
 62
        7
100
AcDbCircle
 10
-503.854872915
 20
627.038719177
 30
0.0
 40
10.0
100
AcDbArc
 50
270.0
 51
0.0
  0
LINE
  5
297
100
AcDbEntity
  8
1
  6
SOLID
 62
        7
100
AcDbLine
 10
-488.854872915
 20
649.038721869
 30
0.0
 11
-493.854872915
 21
649.038721869
 31
0.0
  0
LINE
  5
298
100
AcDbEntity
  8
1
  6
SOLID
 62
        7
100
AcDbLine
 10
-713.854901154
 20
934.038602911
 30
0.0
 11
-713.854901154
 21
1019.038602911
 31
0.0
  0
LINE
  5
299
100
AcDbEntity
  8
1
  6
SOLID
 62
        7
100
AcDbLine
 10
-487.854872915
 20
673.038749695
 30
0.0
 11
-487.854872915
 21
650.038721869
 31
0.0
  0
ARC
  5
29A
100
AcDbEntity
  8
1
  6
SOLID
 62
        7
100
AcDbCircle
 10
-488.854872915
 20
650.038721869
 30
0.0
 40
1.0
100
AcDbArc
 50
270.0
 51
0.0
  0
ARC
  5
29B
100
AcDbEntity
  8
1
  6
SOLID
 62
        7
100
AcDbCircle
 10
-514.854872915
 20
635.538749695
 30
0.0
 40
2.0
100
AcDbArc
 50
270.0
 51
0.0
  0
LINE
  5
29C
100
AcDbEntity
  8
1
  6
SOLID
 62
        7
100
AcDbLine
 10
-516.242503341
 20
654.538749695
 30
0.0
 11
-514.854872915
 21
654.538749695
 31
0.0
  0
ARC
  5
29D
100
AcDbEntity
  8
1
  6
SOLID
 62
        7
100
AcDbCircle
 10
-495.854872915
 20
889.03872456
 30
0.0
 40
2.0
100
AcDbArc
 50
0.0
 51
90.0
  0
LINE
  5
29E
100
AcDbEntity
  8
1
  6
SOLID
 62
        7
100
AcDbLine
 10
-923.854857656
 20
614.038721869
 30
0.0
 11
-906.854857656
 21
614.038721869
 31
0.0
  0
ARC
  5
29F
100
AcDbEntity
  8
1
  6
SOLID
 62
        7
100
AcDbCircle
 10
-906.854842397
 20
615.038719177
 30
0.0
 40
2.0
100
AcDbArc
 50
90.0
 51
180.0
  0
ARC
  5
2A0
100
AcDbEntity
  8
1
  6
SOLID
 62
        7
100
AcDbCircle
 10
-920.854842397
 20
612.038721869
 30
0.0
 40
2.0
100
AcDbArc
 50
0.0
 51
90.0
  0
LINE
  5
2A1
100
AcDbEntity
  8
1
  6
SOLID
 62
        7
100
AcDbLine
 10
-845.854857656
 20
617.038719177
 30
0.0
 11
-906.854842397
 21
617.038719177
 31
0.0
  0
LINE
  5
2A2
100
AcDbEntity
  8
1
  6
SOLID
 62
        7
100
AcDbLine
 10
-868.854842397
 20
612.038721869
 30
0.0
 11
-868.854842397
 21
574.038721869
 31
0.0
  0
LINE
  5
2A3
100
AcDbEntity
  8
1
  6
SOLID
 62
        7
100
AcDbLine
 10
-864.854857656
 20
617.03872456
 30
0.0
 11
-865.854842397
 21
617.03872456
 31
0.0
  0
LINE
  5
2A4
100
AcDbEntity
  8
1
  6
SOLID
 62
        7
100
AcDbLine
 10
-888.854842397
 20
614.038721869
 30
0.0
 11
-870.854842397
 21
614.038721869
 31
0.0
  0
LINE
  5
2A5
100
AcDbEntity
  8
1
  6
L_DASH
 62
        7
100
AcDbLine
 10
-904.854842397
 20
605.378467831
 30
0.0
 11
-904.854842397
 21
574.038721869
 31
0.0
  0
LINE
  5
2A6
100
AcDbEntity
  8
1
  6
L_DASH
 62
        7
100
AcDbLine
 10
-903.354842397
 20
605.378467831
 30
0.0
 11
-903.354842397
 21
574.038721869
 31
0.0
  0
LINE
  5
2A7
100
AcDbEntity
  8
1
  6
L_DASH
 62
        7
100
AcDbLine
 10
-888.854842397
 20
605.378467831
 30
0.0
 11
-888.854842397
 21
574.038721869
 31
0.0
  0
LINE
  5
2A8
100
AcDbEntity
  8
1
  6
SOLID
 62
        7
100
AcDbLine
 10
-918.854842397
 20
574.038721869
 30
0.0
 11
-868.854842397
 21
574.038721869
 31
0.0
  0
LINE
  5
2A9
100
AcDbEntity
  8
1
  6
L_DASH
 62
        7
100
AcDbLine
 10
-890.354842397
 20
605.378467831
 30
0.0
 11
-890.354842397
 21
574.038721869
 31
0.0
  0
LINE
  5
2AA
100
AcDbEntity
  8
1
  6
SOLID
 62
        7
100
AcDbLine
 10
-480.854564708
 20
821.038749695
 30
0.0
 11
-480.854564708
 21
754.038749695
 31
0.0
  0
LINE
  5
2AB
100
AcDbEntity
  8
1
  6
SOLID
 62
        7
100
AcDbLine
 10
-918.854842397
 20
596.038721869
 30
0.0
 11
-918.854842397
 21
574.038721869
 31
0.0
  0
ARC
  5
2AC
100
AcDbEntity
  8
1
  6
SOLID
 62
        7
100
AcDbCircle
 10
-868.854857656
 20
896.03872456
 30
0.0
 40
5.0
100
AcDbArc
 50
180.0
 51
270.0
  0
LINE
  5
2AD
100
AcDbEntity
  8
1
  6
SOLID
 62
        7
100
AcDbLine
 10
-864.854857656
 20
891.03872456
 30
0.0
 11
-868.854857656
 21
891.03872456
 31
0.0
  0
LINE
  5
2AE
100
AcDbEntity
  8
1
  6
SOLID
 62
        7
100
AcDbLine
 10
-918.854842397
 20
612.038721869
 30
0.0
 11
-918.854842397
 21
596.038721869
 31
0.0
  0
LINE
  5
2AF
100
AcDbEntity
  8
1
  6
SOLID
 62
        7
100
AcDbLine
 10
-873.854857656
 20
932.038666336
 30
0.0
 11
-873.854857656
 21
896.03872456
 31
0.0
  0
LINE
  5
2B0
100
AcDbEntity
  8
1
  6
SOLID
 62
        7
100
AcDbLine
 10
-923.854857656
 20
754.038694043
 30
0.0
 11
-923.854857656
 21
894.038721869
 31
0.0
  0
LINE
  5
2B1
100
AcDbEntity
  8
1
  6
SOLID
 62
        7
100
AcDbLine
 10
-841.854902658
 20
886.038661135
 30
0.0
 11
-845.854857656
 21
886.038661135
 31
0.0
  0
ARC
  5
2B2
100
AcDbEntity
  8
1
  6
SOLID
 62
        7
100
AcDbCircle
 10
-868.854933018
 20
896.038661135
 30
0.0
 40
5.0
100
AcDbArc
 50
180.0
 51
270.0
  0
LINE
  5
2B3
100
AcDbEntity
  8
1
  6
SOLID
 62
        7
100
AcDbLine
 10
-845.854857656
 20
891.038661135
 30
0.0
 11
-868.854933018
 21
891.038661135
 31
0.0
  0
ARC
  5
2B4
100
AcDbEntity
  8
1
  6
SOLID
 62
        7
100
AcDbCircle
 10
-875.854933018
 20
932.038602911
 30
0.0
 40
2.0
100
AcDbArc
 50
0.0
 51
90.0
  0
LINE
  5
2B5
100
AcDbEntity
  8
1
  6
SOLID
 62
        7
100
AcDbLine
 10
-873.854933018
 20
932.038602911
 30
0.0
 11
-873.854933018
 21
896.038661135
 31
0.0
  0
ARC
  5
2B6
100
AcDbEntity
  8
1
  6
SOLID
 62
        7
100
AcDbCircle
 10
-911.854901154
 20
932.038602911
 30
0.0
 40
2.0
100
AcDbArc
 50
90.0
 51
180.0
  0
LINE
  5
2B7
100
AcDbEntity
  8
1
  6
SOLID
 62
        7
100
AcDbLine
 10
-908.854842397
 20
615.038719177
 30
0.0
 11
-908.854842397
 21
596.038721869
 31
0.0
  0
ARC
  5
2B8
100
AcDbEntity
  8
1
  6
SOLID
 62
        7
100
AcDbCircle
 10
-916.854842397
 20
596.038721869
 30
0.0
 40
2.0
100
AcDbArc
 50
180.0
 51
270.0
  0
LINE
  5
2B9
100
AcDbEntity
  8
1
  6
SOLID
 62
        7
100
AcDbLine
 10
-910.854842397
 20
594.038721869
 30
0.0
 11
-916.854842397
 21
594.038721869
 31
0.0
  0
ARC
  5
2BA
100
AcDbEntity
  8
1
  6
SOLID
 62
        7
100
AcDbCircle
 10
-910.854842397
 20
596.038721869
 30
0.0
 40
2.0
100
AcDbArc
 50
270.0
 51
0.0
  0
LINE
  5
2BB
100
AcDbEntity
  8
1
  6
SOLID
 62
        7
100
AcDbLine
 10
-516.242503341
 20
633.538749695
 30
0.0
 11
-514.854872915
 21
633.538749695
 31
0.0
  0
LINE
  5
2BC
100
AcDbEntity
  8
1
  6
SOLID
 62
        7
100
AcDbLine
 10
-845.854857656
 20
871.038749695
 30
0.0
 11
-845.854857656
 21
891.038661135
 31
0.0
  0
LINE
  5
2BD
100
AcDbEntity
  8
1
  6
SOLID
 62
        7
100
AcDbLine
 10
-906.854857656
 20
894.038721869
 30
0.0
 11
-923.854857656
 21
894.038721869
 31
0.0
  0
LINE
  5
2BE
100
AcDbEntity
  8
1
  6
SOLID
 62
        7
100
AcDbLine
 10
-923.854857656
 20
754.038749695
 30
0.0
 11
-923.854857656
 21
614.038721869
 31
0.0
  0
LINE
  5
2BF
100
AcDbEntity
  8
1
  6
SOLID
 62
        7
100
AcDbLine
 10
-906.854842397
 20
605.378467831
 30
0.0
 11
-890.854842397
 21
605.378467831
 31
0.0
  0
LINE
  5
2C0
100
AcDbEntity
  8
1
  6
SOLID
 62
        7
100
AcDbLine
 10
-888.854842397
 20
617.038719177
 30
0.0
 11
-888.854842397
 21
607.378467831
 31
0.0
  0
ARC
  5
2C1
100
AcDbEntity
  8
1
  6
SOLID
 62
        7
100
AcDbCircle
 10
-890.854842397
 20
607.378467831
 30
0.0
 40
2.0
100
AcDbArc
 50
270.0
 51
0.0
  0
ARC
  5
2C2
100
AcDbEntity
  8
1
  6
SOLID
 62
        7
100
AcDbCircle
 10
-906.854842397
 20
603.378467831
 30
0.0
 40
2.0
100
AcDbArc
 50
90.0
 51
180.0
  0
ARC
  5
2C3
100
AcDbEntity
  8
1
  6
SOLID
 62
        7
100
AcDbCircle
 10
-870.854842397
 20
612.038721869
 30
0.0
 40
2.0
100
AcDbArc
 50
0.0
 51
90.0
  0
LINE
  5
2C4
100
AcDbEntity
  8
1
  6
SOLID
 62
        7
100
AcDbLine
 10
-913.854901154
 20
894.038721869
 30
0.0
 11
-913.854901154
 21
1019.038602911
 31
0.0
  0
LINE
  5
2C5
100
AcDbEntity
  8
1
  6
SOLID
 62
        7
100
AcDbLine
 10
-713.854901154
 20
934.038602911
 30
0.0
 11
-913.854901154
 21
934.038602911
 31
0.0
  0
LINE
  5
2C6
100
AcDbEntity
  8
1
  6
SOLID
 62
        7
100
AcDbLine
 10
-923.855025512
 20
629.038749695
 30
0.0
 11
-923.855025512
 21
705.038749695
 31
0.0
  0
LINE
  5
2C7
100
AcDbEntity
  8
1
  6
SOLID
 62
        7
100
AcDbLine
 10
-923.855025512
 20
879.038749695
 30
0.0
 11
-923.855025512
 21
803.038749695
 31
0.0
  0
LINE
  5
2C8
100
AcDbEntity
  8
1
  6
CENTER
 62
        7
100
AcDbLine
 10
-1054.085887732
 20
754.038749695
 30
0.0
 11
-350.92687093
 21
754.038749695
 31
0.0
  0
LINE
  5
2C9
100
AcDbEntity
  8
1
  6
SOLID
 62
        7
100
AcDbLine
 10
-487.520555019
 20
857.038749695
 30
0.0
 11
-487.920555115
 21
857.038749695
 31
0.0
  0
LINE
  5
2CA
100
AcDbEntity
  8
1
  6
SOLID
 62
        7
100
AcDbLine
 10
-487.520555019
 20
841.038749695
 30
0.0
 11
-487.520555019
 21
857.038749695
 31
0.0
  0
LINE
  5
2CB
100
AcDbEntity
  8
1
  6
SOLID
 62
        7
100
AcDbLine
 10
-487.920555115
 20
841.038749695
 30
0.0
 11
-487.520555019
 21
841.038749695
 31
0.0
  0
LINE
  5
2CC
100
AcDbEntity
  8
1
  6
SOLID
 62
        7
100
AcDbLine
 10
-360.854564708
 20
632.038754991
 30
0.0
 11
-480.854564708
 21
632.038754991
 31
0.0
  0
LINE
  5
2CD
100
AcDbEntity
  8
1
  6
SOLID
 62
        7
100
AcDbLine
 10
-360.854564708
 20
876.038754991
 30
0.0
 11
-480.854564708
 21
876.038754991
 31
0.0
  0
LINE
  5
2CE
100
AcDbEntity
  8
1
  6
SOLID
 62
        7
100
AcDbLine
 10
-480.854564708
 20
673.038749695
 30
0.0
 11
-480.854564708
 21
632.038754991
 31
0.0
  0
LINE
  5
2CF
100
AcDbEntity
  8
1
  6
SOLID
 62
        7
100
AcDbLine
 10
-360.854564708
 20
673.038749695
 30
0.0
 11
-360.854564708
 21
632.038754991
 31
0.0
  0
LINE
  5
2D0
100
AcDbEntity
  8
1
  6
SOLID
 62
        7
100
AcDbLine
 10
-1048.474912387
 20
759.119432083
 30
0.0
 11
-1051.381920218
 21
759.119432083
 31
0.0
  0
ARC
  5
2D1
100
AcDbEntity
  8
1
  6
SOLID
 62
        7
100
AcDbCircle
 10
-1049.525789143
 20
757.849261486
 30
0.0
 40
2.249123365
100
AcDbArc
 50
145.615740999
 51
214.384259001
  0
LINE
  5
2D2
100
AcDbEntity
  8
1
  6
SOLID
 62
        7
100
AcDbLine
 10
-1051.381920218
 20
756.579090889
 30
0.0
 11
-1048.474912387
 21
756.579090889
 31
0.0
  0
LINE
  5
2D3
100
AcDbEntity
  8
1
  6
SOLID
 62
        7
100
AcDbLine
 10
-1048.254912379
 20
758.061999813
 30
0.0
 11
-1048.474912387
 21
758.061999813
 31
0.0
  0
ARC
  5
2D4
100
AcDbEntity
  8
1
  6
SOLID
 62
        7
100
AcDbCircle
 10
-1049.525789143
 20
750.228237904
 30
0.0
 40
2.249123365
100
AcDbArc
 50
145.615740999
 51
214.384259001
  0
LINE
  5
2D5
100
AcDbEntity
  8
1
  6
SOLID
 62
        7
100
AcDbLine
 10
-1051.381920218
 20
748.958067307
 30
0.0
 11
-1048.474912387
 21
748.958067307
 31
0.0
  0
LINE
  5
2D6
100
AcDbEntity
  8
1
  6
SOLID
 62
        7
100
AcDbLine
 10
-1051.381920218
 20
751.498408501
 30
0.0
 11
-1048.474912387
 21
751.498408501
 31
0.0
  0
LINE
  5
2D7
100
AcDbEntity
  8
1
  6
SOLID
 62
        7
100
AcDbLine
 10
-1048.474912387
 20
750.015499576
 30
0.0
 11
-1048.254912379
 21
750.015499576
 31
0.0
  0
ARC
  5
2D8
100
AcDbEntity
  8
1
  6
SOLID
 62
        7
100
AcDbCircle
 10
-1043.367907482
 20
754.038749695
 30
0.0
 40
8.407005026
100
AcDbArc
 50
162.412040055
 51
197.587959945
  0
LINE
  5
2D9
100
AcDbEntity
  8
1
  6
SOLID
 62
        7
100
AcDbLine
 10
-1051.774912508
 20
750.228237904
 30
0.0
 11
-1051.774912508
 21
757.849261486
 31
0.0
  0
LINE
  5
2DA
100
AcDbEntity
  8
1
  6
SOLID
 62
        7
100
AcDbLine
 10
-1048.474912387
 20
748.958067307
 30
0.0
 11
-1048.474912387
 21
759.119432083
 31
0.0
  0
ARC
  5
2DB
100
AcDbEntity
  8
1
  6
SOLID
 62
        7
100
AcDbCircle
 10
-1046.754874051
 20
789.538749695
 30
0.0
 40
3.0
100
AcDbArc
 50
90.0
 51
120.000230943
  0
LINE
  5
2DC
100
AcDbEntity
  8
1
  6
SOLID
 62
        7
100
AcDbLine
 10
-923.854857656
 20
879.038749695
 30
0.0
 11
-941.854857656
 21
879.038749695
 31
0.0
  0
ARC
  5
2DD
100
AcDbEntity
  8
1
  6
SOLID
 62
        7
100
AcDbCircle
 10
-1021.754869654
 20
789.538749695
 30
0.0
 40
3.0
100
AcDbArc
 50
59.999769057
 51
90.0
  0
LINE
  5
2DE
100
AcDbEntity
  8
1
  6
SOLID
 62
        7
100
AcDbLine
 10
-1021.754869654
 20
792.538749695
 30
0.0
 11
-1046.754874051
 21
792.538749695
 31
0.0
  0
LINE
  5
2DF
100
AcDbEntity
  8
1
  6
SOLID
 62
        7
100
AcDbLine
 10
-941.854857656
 20
900.038749695
 30
0.0
 11
-941.854857656
 21
754.038749695
 31
0.0
  0
LINE
  5
2E0
100
AcDbEntity
  8
1
  6
SOLID
 62
        7
100
AcDbLine
 10
-961.254857275
 20
888.038749695
 30
0.0
 11
-1020.254859182
 21
888.038749695
 31
0.0
  0
LINE
  5
2E1
100
AcDbEntity
  8
1
  6
SOLID
 62
        7
100
AcDbLine
 10
-941.854857656
 20
900.038749695
 30
0.0
 11
-961.254857275
 21
900.038749695
 31
0.0
  0
LINE
  5
2E2
100
AcDbEntity
  8
1
  6
SOLID
 62
        7
100
AcDbLine
 10
-961.254857275
 20
900.038749695
 30
0.0
 11
-961.254857275
 21
754.038749695
 31
0.0
  0
LINE
  5
2E3
100
AcDbEntity
  8
1
  6
SOLID
 62
        7
100
AcDbLine
 10
-1020.254859182
 20
888.038749695
 30
0.0
 11
-1020.254859182
 21
754.038749695
 31
0.0
  0
DIMENSION
  5
2F3
100
AcDbEntity
  8
1
  6
SOLID
 62
        7
100
AcDbDimension
  2
*D12
 10
-896.854858398
 20
517.69909668
 30
0.0
 11
-725.652404785
 21
525.69909668
 31
0.0
  3
12
100
AcDbAlignedDimension
 13
-516.854858398
 23
574.038696289
 33
0.0
 14
-896.854858398
 24
567.168823242
 34
0.0
100
AcDbRotatedDimension
  0
LINE
  5
2F4
100
AcDbEntity
  8
1
  6
SOLID
 62
        7
100
AcDbLine
 10
-512.854872915
 20
652.538749695
 30
0.0
 11
-512.854872915
 21
635.538749695
 31
0.0
  0
LINE
  5
2F5
100
AcDbEntity
  8
1
  6
SOLID
 62
        7
100
AcDbLine
 10
-512.854872915
 20
651.038749695
 30
0.0
 11
-508.854872915
 21
651.038749695
 31
0.0
  0
LINE
  5
2F6
100
AcDbEntity
  8
1
  6
SOLID
 62
        7
100
AcDbLine
 10
-512.854872915
 20
637.038749695
 30
0.0
 11
-508.854872915
 21
637.038749695
 31
0.0
  0
LINE
  5
2F7
100
AcDbEntity
  8
1
  6
CENTER
 62
        7
100
AcDbLine
 10
-566.41760903
 20
644.038749695
 30
0.0
 11
-500.758513427
 21
644.038749695
 31
0.0
  0
DIMENSION
  5
307
100
AcDbEntity
  8
1
  6
SOLID
 62
        7
100
AcDbDimension
  2
*D13
 10
-1103.57800293
 20
574.038696289
 30
0.0
 11
-1111.57800293
 21
777.741027832
 31
0.0
  3
13
100
AcDbAlignedDimension
 13
-913.854858398
 23
1019.038574219
 33
0.0
 14
-918.854858398
 24
574.038696289
 34
0.0
 50
90.0
100
AcDbRotatedDimension
  0
LINE
  5
308
100
AcDbEntity
  8
1
  6
SOLID
 62
        7
100
AcDbLine
 10
-1025.940381995
 20
863.801267624
 30
0.0
 11
-1020.654913327
 21
863.801267624
 31
0.0
  0
LINE
  5
309
100
AcDbEntity
  8
1
  6
SOLID
 62
        7
100
AcDbLine
 10
-567.854857656
 20
617.038774829
 30
0.0
 11
-567.854857656
 21
637.038749695
 31
0.0
  0
LINE
  5
30A
100
AcDbEntity
  8
1
  6
SOLID
 62
        7
100
AcDbLine
 10
-571.854857656
 20
651.038749695
 30
0.0
 11
-543.854872915
 21
651.038749695
 31
0.0
  0
DIMENSION
  5
31A
100
AcDbEntity
  8
1
  6
SOLID
 62
        7
100
AcDbDimension
  2
*D14
 10
-420.85458374
 20
517.899047852
 30
0.0
 11
-402.586273193
 21
525.899047852
 31
0.0
  3
14
100
AcDbAlignedDimension
 13
-360.85458374
 23
632.038696289
 33
0.0
 14
-420.85458374
 24
733.518920898
 34
0.0
100
AcDbRotatedDimension
  0
LINE
  5
31B
100
AcDbEntity
  8
1
  6
SOLID
 62
        7
100
AcDbLine
 10
-567.854857656
 20
651.038749695
 30
0.0
 11
-567.854857656
 21
754.038749695
 31
0.0
  0
LINE
  5
31C
100
AcDbEntity
  8
1
  6
SOLID
 62
        7
100
AcDbLine
 10
-571.854857656
 20
641.438753804
 30
0.0
 11
-571.854857656
 21
754.038749695
 31
0.0
  0
DIMENSION
  5
32D
100
AcDbEntity
  8
1
  6
SOLID
 62
        7
100
AcDbDimension
  2
*D15
 10
-311.00668335
 20
632.038696289
 30
0.0
 11
-319.00668335
 21
671.647705078
 31
0.0
  1
 %%c 210/240/320   
  3
15
100
AcDbAlignedDimension
 13
-360.85458374
 23
876.038696289
 33
0.0
 14
-360.85458374
 24
632.038696289
 34
0.0
 50
90.0
100
AcDbRotatedDimension
  0
LINE
  5
32E
100
AcDbEntity
  8
1
  6
SOLID
 62
        7
100
AcDbLine
 10
-571.854857656
 20
587.038774829
 30
0.0
 11
-571.854857656
 21
637.038749695
 31
0.0
  0
LINE
  5
32F
100
AcDbEntity
  8
1
  6
CENTER
 62
        7
100
AcDbLine
 10
-923.854857656
 20
644.038749695
 30
0.0
 11
-846.366122566
 21
644.038749695
 31
0.0
  0
LINE
  5
330
100
AcDbEntity
  8
1
  6
SOLID
 62
        7
100
AcDbLine
 10
-1020.654913327
 20
863.801267624
 30
0.0
 11
-1020.654913327
 21
882.276475906
 31
0.0
  0
LINE
  5
331
100
AcDbEntity
  8
1
  6
SOLID
 62
        7
100
AcDbLine
 10
-360.854564708
 20
821.038749695
 30
0.0
 11
-360.854564708
 21
687.038749695
 31
0.0
  0
LINE
  5
332
100
AcDbEntity
  8
1
  6
CENTER
 62
        7
100
AcDbLine
 10
-371.854564708
 20
619.317373204
 30
0.0
 11
-371.854564708
 21
673.038749695
 31
0.0
  0
LINE
  5
333
100
AcDbEntity
  8
1
  6
CENTER
 62
        7
100
AcDbLine
 10
-385.854564708
 20
619.317373204
 30
0.0
 11
-385.854564708
 21
673.038749695
 31
0.0
  0
LINE
  5
334
100
AcDbEntity
  8
1
  6
CENTER
 62
        7
100
AcDbLine
 10
-399.854564708
 20
619.317373204
 30
0.0
 11
-399.854564708
 21
673.038749695
 31
0.0
  0
LINE
  5
335
100
AcDbEntity
  8
1
  6
CENTER
 62
        7
100
AcDbLine
 10
-413.854564708
 20
619.317373204
 30
0.0
 11
-413.854564708
 21
673.038749695
 31
0.0
  0
LINE
  5
336
100
AcDbEntity
  8
1
  6
CENTER
 62
        7
100
AcDbLine
 10
-427.854564708
 20
619.317373204
 30
0.0
 11
-427.854564708
 21
673.038749695
 31
0.0
  0
LINE
  5
337
100
AcDbEntity
  8
1
  6
CENTER
 62
        7
100
AcDbLine
 10
-441.854564708
 20
619.317373204
 30
0.0
 11
-441.854564708
 21
673.038749695
 31
0.0
  0
LINE
  5
338
100
AcDbEntity
  8
1
  6
CENTER
 62
        7
100
AcDbLine
 10
-455.854564708
 20
619.317373204
 30
0.0
 11
-455.854564708
 21
673.038749695
 31
0.0
  0
LINE
  5
339
100
AcDbEntity
  8
1
  6
CENTER
 62
        7
100
AcDbLine
 10
-469.854564708
 20
619.317373204
 30
0.0
 11
-469.854564708
 21
673.038749695
 31
0.0
  0
LINE
  5
33A
100
AcDbEntity
  8
1
  6
SOLID
 62
        7
100
AcDbLine
 10
-480.854564708
 20
754.038749695
 30
0.0
 11
-480.854564708
 21
687.038749695
 31
0.0
  0
LINE
  5
33B
100
AcDbEntity
  8
1
  6
CENTER
 62
        7
100
AcDbLine
 10
-371.854564708
 20
888.760126186
 30
0.0
 11
-371.854564708
 21
835.038749695
 31
0.0
  0
LINE
  5
33C
100
AcDbEntity
  8
1
  6
CENTER
 62
        7
100
AcDbLine
 10
-385.854564708
 20
888.760126186
 30
0.0
 11
-385.854564708
 21
835.038749695
 31
0.0
  0
LINE
  5
33D
100
AcDbEntity
  8
1
  6
CENTER
 62
        7
100
AcDbLine
 10
-399.854564708
 20
888.760126186
 30
0.0
 11
-399.854564708
 21
835.038749695
 31
0.0
  0
LINE
  5
33E
100
AcDbEntity
  8
1
  6
SOLID
 62
        7
100
AcDbLine
 10
-845.854857656
 20
637.038749695
 30
0.0
 11
-845.854857656
 21
617.038838254
 31
0.0
  0
LINE
  5
33F
100
AcDbEntity
  8
1
  6
SOLID
 62
        7
100
AcDbLine
 10
-841.854902658
 20
587.038774829
 30
0.0
 11
-841.854902658
 21
637.038749695
 31
0.0
  0
LINE
  5
340
100
AcDbEntity
  8
1
  6
CENTER
 62
        7
100
AcDbLine
 10
-413.854564708
 20
888.760126186
 30
0.0
 11
-413.854564708
 21
835.038749695
 31
0.0
  0
LINE
  5
341
100
AcDbEntity
  8
1
  6
SOLID
 62
        7
100
AcDbLine
 10
-360.854564708
 20
876.038754991
 30
0.0
 11
-360.854564708
 21
835.038749695
 31
0.0
  0
LINE
  5
342
100
AcDbEntity
  8
1
  6
CENTER
 62
        7
100
AcDbLine
 10
-427.854564708
 20
888.760126186
 30
0.0
 11
-427.854564708
 21
835.038749695
 31
0.0
  0
LINE
  5
343
100
AcDbEntity
  8
1
  6
CENTER
 62
        7
100
AcDbLine
 10
-441.854564708
 20
888.760126186
 30
0.0
 11
-441.854564708
 21
835.038749695
 31
0.0
  0
LINE
  5
344
100
AcDbEntity
  8
1
  6
CENTER
 62
        7
100
AcDbLine
 10
-455.854564708
 20
888.760126186
 30
0.0
 11
-455.854564708
 21
835.038749695
 31
0.0
  0
LINE
  5
345
100
AcDbEntity
  8
1
  6
CENTER
 62
        7
100
AcDbLine
 10
-469.854564708
 20
888.760126186
 30
0.0
 11
-469.854564708
 21
835.038749695
 31
0.0
  0
LINE
  5
346
100
AcDbEntity
  8
1
  6
SOLID
 62
        7
100
AcDbLine
 10
-480.854564708
 20
876.038754991
 30
0.0
 11
-480.854564708
 21
835.038749695
 31
0.0
  0
LINE
  5
347
100
AcDbEntity
  8
1
  6
SOLID
 62
        7
100
AcDbLine
 10
-487.854872915
 20
754.038749695
 30
0.0
 11
-487.854872915
 21
687.038749695
 31
0.0
  0
LINE
  5
348
100
AcDbEntity
  8
1
  6
SOLID
 62
        7
100
AcDbLine
 10
-493.854872915
 20
695.038772601
 30
0.0
 11
-489.854872915
 21
695.038772601
 31
0.0
  0
LINE
  5
349
100
AcDbEntity
  8
1
  6
CENTER
 62
        7
100
AcDbLine
 10
-497.807325548
 20
647.538751316
 30
0.0
 11
-483.776118701
 21
647.538751316
 31
0.0
  0
LINE
  5
34A
100
AcDbEntity
  8
1
  6
SOLID
 62
        7
100
AcDbLine
 10
-841.854902658
 20
641.438753804
 30
0.0
 11
-841.854902658
 21
754.038749695
 31
0.0
  0
LINE
  5
34B
100
AcDbEntity
  8
1
  6
SOLID
 62
        7
100
AcDbLine
 10
-845.854857656
 20
754.038749695
 30
0.0
 11
-845.854857656
 21
651.038749695
 31
0.0
  0
LINE
  5
34C
100
AcDbEntity
  8
1
  6
SOLID
 62
        7
100
AcDbLine
 10
-489.854872915
 20
695.038772601
 30
0.0
 11
-489.854872915
 21
630.038755094
 31
0.0
  0
LINE
  5
34D
100
AcDbEntity
  8
1
  6
SOLID
 62
        7
100
AcDbLine
 10
-841.854902658
 20
586.990691813
 30
0.0
 11
-571.854857656
 21
586.990691813
 31
0.0
  0
LINE
  5
34E
100
AcDbEntity
  8
1
  6
SOLID
 62
        7
100
AcDbLine
 10
-841.854902658
 20
587.690691824
 30
0.0
 11
-571.854857656
 21
587.690691824
 31
0.0
  0
LINE
  5
34F
100
AcDbEntity
  8
1
  6
SOLID
 62
        7
100
AcDbLine
 10
-493.854872915
 20
630.038755094
 30
0.0
 11
-489.854872915
 21
630.038755094
 31
0.0
  0
LINE
  5
350
100
AcDbEntity
  8
1
  6
CENTER
 62
        7
100
AcDbLine
 10
-514.060719073
 20
680.038749695
 30
0.0
 11
-343.053701272
 21
680.038749695
 31
0.0
  0
LINE
  5
351
100
AcDbEntity
  8
1
  6
SOLID
 62
        7
100
AcDbLine
 10
-894.054842949
 20
637.038749695
 30
0.0
 11
-543.854872915
 21
637.038749695
 31
0.0
  0
LINE
  5
352
100
AcDbEntity
  8
1
  6
SOLID
 62
        7
100
AcDbLine
 10
-894.054842949
 20
651.038749695
 30
0.0
 11
-841.854902658
 21
651.038749695
 31
0.0
  0
LINE
  5
353
100
AcDbEntity
  8
1
  6
SOLID
 62
        7
100
AcDbLine
 10
-493.854872915
 20
813.038726789
 30
0.0
 11
-489.854872915
 21
813.038726789
 31
0.0
  0
LINE
  5
354
100
AcDbEntity
  8
1
  6
SOLID
 62
        7
100
AcDbLine
 10
-493.854872915
 20
878.038744296
 30
0.0
 11
-489.854872915
 21
878.038744296
 31
0.0
  0
LINE
  5
355
100
AcDbEntity
  8
1
  6
CENTER
 62
        7
100
AcDbLine
 10
-923.854857656
 20
864.038749695
 30
0.0
 11
-846.366122566
 21
864.038749695
 31
0.0
  0
LINE
  5
356
100
AcDbEntity
  8
1
  6
SOLID
 62
        7
100
AcDbLine
 10
-841.854902658
 20
921.03872456
 30
0.0
 11
-841.854902658
 21
871.038749695
 31
0.0
  0
LINE
  5
357
100
AcDbEntity
  8
1
  6
SOLID
 62
        7
100
AcDbLine
 10
-841.854902658
 20
589.690691824
 30
0.0
 11
-571.854857656
 21
589.690691824
 31
0.0
  0
LINE
  5
358
100
AcDbEntity
  8
1
  6
SOLID
 62
        7
100
AcDbLine
 10
-841.854902658
 20
592.617916431
 30
0.0
 11
-571.854857656
 21
592.617916431
 31
0.0
  0
LINE
  5
359
100
AcDbEntity
  8
1
  6
SOLID
 62
        7
100
AcDbLine
 10
-845.854857656
 20
754.038749695
 30
0.0
 11
-845.854857656
 21
857.038749695
 31
0.0
  0
LINE
  5
35A
100
AcDbEntity
  8
1
  6
SOLID
 62
        7
100
AcDbLine
 10
-489.854872915
 20
813.038726789
 30
0.0
 11
-489.854872915
 21
878.038744296
 31
0.0
  0
LINE
  5
35B
100
AcDbEntity
  8
1
  6
CENTER
 62
        7
100
AcDbLine
 10
-514.060719073
 20
828.038749695
 30
0.0
 11
-343.053701272
 21
828.038749695
 31
0.0
  0
LINE
  5
35C
100
AcDbEntity
  8
1
  6
CENTER
 62
        7
100
AcDbLine
 10
-497.807325548
 20
860.538748073
 30
0.0
 11
-483.776118701
 21
860.538748073
 31
0.0
  0
LINE
  5
35D
100
AcDbEntity
  8
1
  6
SOLID
 62
        7
100
AcDbLine
 10
-354.854872915
 20
686.038749695
 30
0.0
 11
-354.854872915
 21
674.038749695
 31
0.0
  0
LINE
  5
35E
100
AcDbEntity
  8
1
  6
SOLID
 62
        7
100
AcDbLine
 10
-489.854872915
 20
687.038749695
 30
0.0
 11
-355.854872915
 21
687.038749695
 31
0.0
  0
LINE
  5
35F
100
AcDbEntity
  8
1
  6
SOLID
 62
        7
100
AcDbLine
 10
-489.854872915
 20
673.038749695
 30
0.0
 11
-355.854872915
 21
673.038749695
 31
0.0
  0
LINE
  5
360
100
AcDbEntity
  8
1
  6
SOLID
 62
        7
100
AcDbLine
 10
-354.854872915
 20
822.038749695
 30
0.0
 11
-354.854872915
 21
834.038749695
 31
0.0
  0
LINE
  5
361
100
AcDbEntity
  8
1
  6
SOLID
 62
        7
100
AcDbLine
 10
-489.854872915
 20
821.038749695
 30
0.0
 11
-355.854872915
 21
821.038749695
 31
0.0
  0
LINE
  5
362
100
AcDbEntity
  8
1
  6
SOLID
 62
        7
100
AcDbLine
 10
-1020.654913327
 20
882.276475906
 30
0.0
 11
-1025.940381995
 21
882.276475906
 31
0.0
  0
ARC
  5
363
100
AcDbEntity
  8
1
  6
SOLID
 62
        7
100
AcDbCircle
 10
-1022.565598295
 20
879.967074871
 30
0.0
 40
4.089315121
100
AcDbArc
 50
145.615740999
 51
214.384259001
  0
LINE
  5
364
100
AcDbEntity
  8
1
  6
SOLID
 62
        7
100
AcDbLine
 10
-927.097541841
 20
938.038771881
 30
0.0
 11
-981.854901154
 21
938.038771881
 31
0.0
  0
LINE
  5
365
100
AcDbEntity
  8
1
  6
CENTER
 62
        7
100
AcDbLine
 10
-713.854901154
 20
992.038731871
 30
0.0
 11
-729.321396512
 21
992.038731871
 31
0.0
  0
LINE
  5
366
100
AcDbEntity
  8
1
  6
CENTER
 62
        7
100
AcDbLine
 10
-713.854901154
 20
959.038731871
 30
0.0
 11
-730.189884296
 21
959.038731871
 31
0.0
  0
DIMENSION
  5
377
100
AcDbEntity
  8
1
  6
SOLID
 62
        7
100
AcDbDimension
  2
*D16
 10
-543.854858398
 20
545.024597168
 30
0.0
 11
-588.635131836
 21
553.024597168
 31
0.0
  3
16
100
AcDbAlignedDimension
 13
-493.854827881
 23
574.038696289
 33
0.0
 14
-543.854858398
 24
574.038696289
 34
0.0
100
AcDbRotatedDimension
  0
LINE
  5
378
100
AcDbEntity
  8
1
  6
SOLID
 62
        7
100
AcDbLine
 10
-489.854872915
 20
835.038749695
 30
0.0
 11
-355.854872915
 21
835.038749695
 31
0.0
  0
LINE
  5
379
100
AcDbEntity
  8
1
  6
SOLID
 62
        7
100
AcDbLine
 10
-707.854901154
 20
959.038731871
 30
0.0
 11
-713.854901154
 21
959.038731871
 31
0.0
  0
DIMENSION
  5
38A
100
AcDbEntity
  8
1
  6
SOLID
 62
        7
100
AcDbDimension
  2
*D17
 10
-918.854858398
 20
543.791992188
 30
0.0
 11
-848.232055664
 21
551.791992188
 31
0.0
  3
17
100
AcDbAlignedDimension
 13
-868.854858398
 23
574.038696289
 33
0.0
 14
-918.854858398
 24
574.038696289
 34
0.0
100
AcDbRotatedDimension
  0
LINE
  5
38B
100
AcDbEntity
  8
1
  6
SOLID
 62
        7
100
AcDbLine
 10
-841.854902658
 20
641.438753804
 30
0.0
 11
-571.854857656
 21
641.438753804
 31
0.0
  0
LINE
  5
38C
100
AcDbEntity
  8
1
  6
SOLID
 62
        7
100
AcDbLine
 10
-906.854857656
 20
754.038749695
 30
0.0
 11
-906.854857656
 21
614.038721869
 31
0.0
  0
LINE
  5
38D
100
AcDbEntity
  8
1
  6
CENTER
 62
        7
100
AcDbLine
 10
-704.854901154
 20
959.038731871
 30
0.0
 11
-707.854901154
 21
959.038731871
 31
0.0
  0
LINE
  5
38E
100
AcDbEntity
  8
1
  6
SOLID
 62
        7
100
AcDbLine
 10
-689.854901154
 20
959.038731871
 30
0.0
 11
-704.854901154
 21
959.038731871
 31
0.0
  0
LINE
  5
38F
100
AcDbEntity
  8
1
  6
SOLID
 62
        7
100
AcDbLine
 10
-1025.940381995
 20
877.657673836
 30
0.0
 11
-1020.654913327
 21
877.657673836
 31
0.0
  0
ARC
  5
390
100
AcDbEntity
  8
1
  6
SOLID
 62
        7
100
AcDbCircle
 10
-1011.369450064
 20
873.038871765
 30
0.0
 40
15.285463353
100
AcDbArc
 50
162.412040055
 51
197.587959945
  0
LINE
  5
391
100
AcDbEntity
  8
1
  6
SOLID
 62
        7
100
AcDbLine
 10
-1025.940381995
 20
868.420069695
 30
0.0
 11
-1020.654913327
 21
868.420069695
 31
0.0
  0
ARC
  5
392
100
AcDbEntity
  8
1
  6
SOLID
 62
        7
100
AcDbCircle
 10
-1022.565598295
 20
866.110668659
 30
0.0
 40
4.089315121
100
AcDbArc
 50
145.615740999
 51
214.384259001
  0
LINE
  5
393
100
AcDbEntity
  8
1
  6
SOLID
 62
        7
100
AcDbLine
 10
-1026.654913417
 20
866.110668659
 30
0.0
 11
-1026.654913417
 21
879.967074871
 31
0.0
  0
LINE
  5
394
100
AcDbEntity
  8
1
  6
SOLID
 62
        7
100
AcDbLine
 10
-1020.654913327
 20
865.723871708
 30
0.0
 11
-1020.254913321
 21
865.723871708
 31
0.0
  0
LINE
  5
395
100
AcDbEntity
  8
1
  6
SOLID
 62
        7
100
AcDbLine
 10
-1020.254913321
 20
865.723871708
 30
0.0
 11
-1020.254913321
 21
880.353871822
 31
0.0
  0
LINE
  5
396
100
AcDbEntity
  8
1
  6
SOLID
 62
        7
100
AcDbLine
 10
-1020.254913321
 20
880.353871822
 30
0.0
 11
-1020.654913327
 21
880.353871822
 31
0.0
  0
ARC
  5
397
100
AcDbEntity
  8
1
  6
SOLID
 62
        7
100
AcDbCircle
 10
-1021.754869654
 20
718.538749695
 30
0.0
 40
3.0
100
AcDbArc
 50
270.0
 51
300.000230943
  0
LINE
  5
398
100
AcDbEntity
  8
1
  6
SOLID
 62
        7
100
AcDbLine
 10
-941.854857656
 20
620.038749695
 30
0.0
 11
-1020.254859182
 21
620.038749695
 31
0.0
  0
LINE
  5
399
100
AcDbEntity
  8
1
  6
SOLID
 62
        7
100
AcDbLine
 10
-1020.254859182
 20
620.038749695
 30
0.0
 11
-1020.254859182
 21
754.038749695
 31
0.0
  0
LINE
  5
39A
100
AcDbEntity
  8
1
  6
SOLID
 62
        7
100
AcDbLine
 10
-963.854994213
 20
620.038794671
 30
0.0
 11
-941.854857656
 21
620.038794671
 31
0.0
  0
LINE
  5
39B
100
AcDbEntity
  8
1
  6
SOLID
 62
        7
100
AcDbLine
 10
-1025.940381995
 20
644.276231766
 30
0.0
 11
-1020.654913327
 21
644.276231766
 31
0.0
  0
LINE
  5
39C
100
AcDbEntity
  8
1
  6
SOLID
 62
        7
100
AcDbLine
 10
-1025.940381995
 20
639.657429695
 30
0.0
 11
-1020.654913327
 21
639.657429695
 31
0.0
  0
ARC
  5
39D
100
AcDbEntity
  8
1
  6
SOLID
 62
        7
100
AcDbCircle
 10
-1022.565598295
 20
641.96683073
 30
0.0
 40
4.089315121
100
AcDbArc
 50
145.615740999
 51
214.384259001
  0
LINE
  5
39E
100
AcDbEntity
  8
1
  6
SOLID
 62
        7
100
AcDbLine
 10
-1020.654913327
 20
625.801023483
 30
0.0
 11
-1025.940381995
 21
625.801023483
 31
0.0
  0
ARC
  5
39F
100
AcDbEntity
  8
1
  6
SOLID
 62
        7
100
AcDbCircle
 10
-1022.565598295
 20
628.110424519
 30
0.0
 40
4.089315121
100
AcDbArc
 50
145.615740999
 51
214.384259001
  0
LINE
  5
3A0
100
AcDbEntity
  8
1
  6
SOLID
 62
        7
100
AcDbLine
 10
-1025.940381995
 20
630.419825554
 30
0.0
 11
-1020.654913327
 21
630.419825554
 31
0.0
  0
ARC
  5
3A1
100
AcDbEntity
  8
1
  6
SOLID
 62
        7
100
AcDbCircle
 10
-1011.369450064
 20
635.038627625
 30
0.0
 40
15.285463353
100
AcDbArc
 50
162.412040055
 51
197.587959945
  0
LINE
  5
3A2
100
AcDbEntity
  8
1
  6
SOLID
 62
        7
100
AcDbLine
 10
-1026.654913417
 20
641.96683073
 30
0.0
 11
-1026.654913417
 21
628.110424519
 31
0.0
  0
LINE
  5
3A3
100
AcDbEntity
  8
1
  6
SOLID
 62
        7
100
AcDbLine
 10
-961.254857275
 20
620.038749695
 30
0.0
 11
-961.254857275
 21
754.038749695
 31
0.0
  0
LINE
  5
3A4
100
AcDbEntity
  8
1
  6
SOLID
 62
        7
100
AcDbLine
 10
-941.854857656
 20
620.038794671
 30
0.0
 11
-941.854857656
 21
754.038749695
 31
0.0
  0
LINE
  5
3A5
100
AcDbEntity
  8
1
  6
SOLID
 62
        7
100
AcDbLine
 10
-923.854857656
 20
629.038749695
 30
0.0
 11
-941.854857656
 21
629.038749695
 31
0.0
  0
LINE
  5
3A6
100
AcDbEntity
  8
1
  6
CENTER
 62
        7
100
AcDbLine
 10
-671.733248598
 20
959.038731871
 30
0.0
 11
-689.854901154
 21
959.038731871
 31
0.0
  0
LINE
  5
3A7
100
AcDbEntity
  8
1
  6
SOLID
 62
        7
100
AcDbLine
 10
-704.854901154
 20
942.538731871
 30
0.0
 11
-707.854901154
 21
942.538731871
 31
0.0
  0
LINE
  5
3A8
100
AcDbEntity
  8
1
  6
SOLID
 62
        7
100
AcDbLine
 10
-704.854901154
 20
975.538731871
 30
0.0
 11
-707.854901154
 21
975.538731871
 31
0.0
  0
ARC
  5
3A9
100
AcDbEntity
  8
1
  6
SOLID
 62
        7
100
AcDbCircle
 10
-686.854901154
 20
972.538731871
 30
0.0
 40
3.0
100
AcDbArc
 50
0.0
 51
90.0
  0
LINE
  5
3AA
100
AcDbEntity
  8
1
  6
SOLID
 62
        7
100
AcDbLine
 10
-354.854872915
 20
686.038749695
 30
0.0
 11
-355.854872915
 21
687.038749695
 31
0.0
  0
LINE
  5
3AB
100
AcDbEntity
  8
1
  6
SOLID
 62
        7
100
AcDbLine
 10
-354.854872915
 20
674.038749695
 30
0.0
 11
-355.854872915
 21
673.038749695
 31
0.0
  0
ARC
  5
3AC
100
AcDbEntity
  8
1
  6
SOLID
 62
        7
100
AcDbCircle
 10
-686.854901154
 20
945.538731871
 30
0.0
 40
3.0
100
AcDbArc
 50
270.0
 51
0.0
  0
LINE
  5
3AD
100
AcDbEntity
  8
1
  6
SOLID
 62
        7
100
AcDbLine
 10
-354.854872915
 20
822.038749695
 30
0.0
 11
-355.854872915
 21
821.038749695
 31
0.0
  0
LINE
  5
3AE
100
AcDbEntity
  8
1
  6
SOLID
 62
        7
100
AcDbLine
 10
-354.854872915
 20
834.038749695
 30
0.0
 11
-355.854872915
 21
835.038749695
 31
0.0
  0
LINE
  5
3AF
100
AcDbEntity
  8
1
  6
SOLID
 62
        7
100
AcDbLine
 10
-686.854901154
 20
942.538731871
 30
0.0
 11
-689.854901154
 21
942.538731871
 31
0.0
  0
LINE
  5
3B0
100
AcDbEntity
  8
1
  6
SOLID
 62
        7
100
AcDbLine
 10
-686.854901154
 20
975.538731871
 30
0.0
 11
-689.854901154
 21
975.538731871
 31
0.0
  0
ARC
  5
3B1
100
AcDbEntity
  8
1
  6
SOLID
 62
        7
100
AcDbCircle
 10
-1046.754874051
 20
718.538749695
 30
0.0
 40
3.0
100
AcDbArc
 50
239.999769057
 51
270.0
  0
LINE
  5
3B2
100
AcDbEntity
  8
1
  6
SOLID
 62
        7
100
AcDbLine
 10
-683.854901154
 20
945.538731871
 30
0.0
 11
-683.854901154
 21
972.538731871
 31
0.0
  0
LINE
  5
3B3
100
AcDbEntity
  8
1
  6
SOLID
 62
        7
100
AcDbLine
 10
-1021.754869654
 20
715.538749695
 30
0.0
 11
-1046.754874051
 21
715.538749695
 31
0.0
  0
LINE
  5
3B4
100
AcDbEntity
  8
1
  6
SOLID
 62
        7
100
AcDbLine
 10
-689.854901154
 20
941.038731871
 30
0.0
 11
-689.854901154
 21
977.038731871
 31
0.0
  0
LINE
  5
3B5
100
AcDbEntity
  8
1
  6
SOLID
 62
        7
100
AcDbLine
 10
-689.854901154
 20
941.038731871
 30
0.0
 11
-704.854901154
 21
941.038731871
 31
0.0
  0
LINE
  5
3B6
100
AcDbEntity
  8
1
  6
SOLID
 62
        7
100
AcDbLine
 10
-689.854901154
 20
977.038731871
 30
0.0
 11
-704.854901154
 21
977.038731871
 31
0.0
  0
LINE
  5
3B7
100
AcDbEntity
  8
1
  6
SOLID
 62
        7
100
AcDbLine
 10
-704.854901154
 20
941.038731871
 30
0.0
 11
-704.854901154
 21
977.038731871
 31
0.0
  0
LINE
  5
3B8
100
AcDbEntity
  8
1
  6
SOLID
 62
        7
100
AcDbLine
 10
-707.854901154
 20
941.038731871
 30
0.0
 11
-713.854901154
 21
941.038731871
 31
0.0
  0
LINE
  5
3B9
100
AcDbEntity
  8
1
  6
SOLID
 62
        7
100
AcDbLine
 10
-707.854901154
 20
977.038731871
 30
0.0
 11
-713.854901154
 21
977.038731871
 31
0.0
  0
LINE
  5
3BA
100
AcDbEntity
  8
1
  6
SOLID
 62
        7
100
AcDbLine
 10
-707.854901154
 20
941.038731871
 30
0.0
 11
-707.854901154
 21
977.038731871
 31
0.0
  0
LINE
  5
3BB
100
AcDbEntity
  8
1
  6
SOLID
 62
        7
100
AcDbLine
 10
-708.854901154
 20
992.038731871
 30
0.0
 11
-713.854901154
 21
992.038731871
 31
0.0
  0
LINE
  5
3BC
100
AcDbEntity
  8
1
  6
CENTER
 62
        7
100
AcDbLine
 10
-705.854901154
 20
992.038731871
 30
0.0
 11
-708.854901154
 21
992.038731871
 31
0.0
  0
LINE
  5
3BD
100
AcDbEntity
  8
1
  6
SOLID
 62
        7
100
AcDbLine
 10
-692.854901154
 20
992.038731871
 30
0.0
 11
-705.854901154
 21
992.038731871
 31
0.0
  0
LINE
  5
3BE
100
AcDbEntity
  8
1
  6
CENTER
 62
        7
100
AcDbLine
 10
-684.634323962
 20
992.038731871
 30
0.0
 11
-692.854901154
 21
992.038731871
 31
0.0
  0
ARC
  5
3BF
100
AcDbEntity
  8
1
  6
SOLID
 62
        7
100
AcDbCircle
 10
-689.854901154
 20
984.038731871
 30
0.0
 40
3.0
100
AcDbArc
 50
270.0
 51
0.0
  0
LINE
  5
3C0
100
AcDbEntity
  8
1
  6
SOLID
 62
        7
100
AcDbLine
 10
-487.854872915
 20
754.038749695
 30
0.0
 11
-487.854872915
 21
821.038749695
 31
0.0
  0
ARC
  5
3C1
100
AcDbEntity
  8
1
  6
SOLID
 62
        7
100
AcDbCircle
 10
-689.854901154
 20
1000.038731871
 30
0.0
 40
3.0
100
AcDbArc
 50
0.0
 51
90.0
  0
LINE
  5
3C2
100
AcDbEntity
  8
1
  6
SOLID
 62
        7
100
AcDbLine
 10
-686.854901154
 20
984.038731871
 30
0.0
 11
-686.854901154
 21
1000.038731871
 31
0.0
  0
LINE
  5
3C3
100
AcDbEntity
  8
1
  6
SOLID
 62
        7
100
AcDbLine
 10
-689.854901154
 20
981.038731871
 30
0.0
 11
-692.854901154
 21
981.038731871
 31
0.0
  0
LINE
  5
3C4
100
AcDbEntity
  8
1
  6
SOLID
 62
        7
100
AcDbLine
 10
-689.854901154
 20
1003.038731871
 30
0.0
 11
-692.854901154
 21
1003.038731871
 31
0.0
  0
LINE
  5
3C5
100
AcDbEntity
  8
1
  6
SOLID
 62
        7
100
AcDbLine
 10
-692.854901154
 20
980.038731871
 30
0.0
 11
-705.854901154
 21
980.038731871
 31
0.0
  0
LINE
  5
3C6
100
AcDbEntity
  8
1
  6
SOLID
 62
        7
100
AcDbLine
 10
-692.854901154
 20
1004.038731871
 30
0.0
 11
-705.854901154
 21
1004.038731871
 31
0.0
  0
LINE
  5
3C7
100
AcDbEntity
  8
1
  6
SOLID
 62
        7
100
AcDbLine
 10
-692.854901154
 20
980.038731871
 30
0.0
 11
-692.854901154
 21
1004.038731871
 31
0.0
  0
LINE
  5
3C8
100
AcDbEntity
  8
1
  6
SOLID
 62
        7
100
AcDbLine
 10
-705.854901154
 20
980.038731871
 30
0.0
 11
-705.854901154
 21
1004.038731871
 31
0.0
  0
LINE
  5
3C9
100
AcDbEntity
  8
1
  6
SOLID
 62
        7
100
AcDbLine
 10
-705.854901154
 20
982.038731871
 30
0.0
 11
-708.854901154
 21
982.038731871
 31
0.0
  0
LINE
  5
3CA
100
AcDbEntity
  8
1
  6
SOLID
 62
        7
100
AcDbLine
 10
-705.854901154
 20
1002.038731871
 30
0.0
 11
-708.854901154
 21
1002.038731871
 31
0.0
  0
LINE
  5
3CB
100
AcDbEntity
  8
1
  6
SOLID
 62
        7
100
AcDbLine
 10
-708.854901154
 20
980.038731871
 30
0.0
 11
-713.854901154
 21
980.038731871
 31
0.0
  0
LINE
  5
3CC
100
AcDbEntity
  8
1
  6
SOLID
 62
        7
100
AcDbLine
 10
-708.854901154
 20
1004.038731871
 30
0.0
 11
-713.854901154
 21
1004.038731871
 31
0.0
  0
LINE
  5
3CD
100
AcDbEntity
  8
1
  6
SOLID
 62
        7
100
AcDbLine
 10
-708.854901154
 20
980.038731871
 30
0.0
 11
-708.854901154
 21
1004.038731871
 31
0.0
  0
LINE
  5
3CE
100
AcDbEntity
  8
1
  6
SOLID
 62
        7
100
AcDbLine
 10
-571.854882257
 20
886.038780212
 30
0.0
 11
-567.854882257
 21
886.038780212
 31
0.0
  0
LINE
  5
3CF
100
AcDbEntity
  8
1
  6
CENTER
 62
        7
100
AcDbLine
 10
-469.854564708
 20
687.038749695
 30
0.0
 11
-469.854564708
 21
754.038749695
 31
0.0
  0
LINE
  5
3D0
100
AcDbEntity
  8
1
  6
CENTER
 62
        7
100
AcDbLine
 10
-455.854564708
 20
687.038749695
 30
0.0
 11
-455.854564708
 21
754.038749695
 31
0.0
  0
LINE
  5
3D1
100
AcDbEntity
  8
1
  6
CENTER
 62
        7
100
AcDbLine
 10
-441.854564708
 20
687.038749695
 30
0.0
 11
-441.854564708
 21
754.038749695
 31
0.0
  0
LINE
  5
3D2
100
AcDbEntity
  8
1
  6
CENTER
 62
        7
100
AcDbLine
 10
-427.854564708
 20
687.038749695
 30
0.0
 11
-427.854564708
 21
754.038749695
 31
0.0
  0
LINE
  5
3D3
100
AcDbEntity
  8
1
  6
CENTER
 62
        7
100
AcDbLine
 10
-371.854564708
 20
687.038749695
 30
0.0
 11
-371.854564708
 21
754.038749695
 31
0.0
  0
LINE
  5
3D4
100
AcDbEntity
  8
1
  6
CENTER
 62
        7
100
AcDbLine
 10
-385.854564708
 20
687.038749695
 30
0.0
 11
-385.854564708
 21
754.038749695
 31
0.0
  0
LINE
  5
3D5
100
AcDbEntity
  8
1
  6
CENTER
 62
        7
100
AcDbLine
 10
-399.854564708
 20
687.038749695
 30
0.0
 11
-399.854564708
 21
754.038749695
 31
0.0
  0
LINE
  5
3D6
100
AcDbEntity
  8
1
  6
CENTER
 62
        7
100
AcDbLine
 10
-413.854564708
 20
687.038749695
 30
0.0
 11
-413.854564708
 21
754.038749695
 31
0.0
  0
LINE
  5
3D7
100
AcDbEntity
  8
1
  6
CENTER
 62
        7
100
AcDbLine
 10
-371.854564708
 20
821.038749695
 30
0.0
 11
-371.854564708
 21
754.038749695
 31
0.0
  0
LINE
  5
3D8
100
AcDbEntity
  8
1
  6
CENTER
 62
        7
100
AcDbLine
 10
-385.854564708
 20
821.038749695
 30
0.0
 11
-385.854564708
 21
754.038749695
 31
0.0
  0
LINE
  5
3D9
100
AcDbEntity
  8
1
  6
SOLID
 62
        7
100
AcDbLine
 10
-841.854902658
 20
596.942058304
 30
0.0
 11
-571.854857656
 21
596.942058304
 31
0.0
  0
LINE
  5
3DA
100
AcDbEntity
  8
1
  6
SOLID
 62
        7
100
AcDbLine
 10
-841.854902658
 20
602.637735452
 30
0.0
 11
-571.854857656
 21
602.637735452
 31
0.0
  0
LINE
  5
3DB
100
AcDbEntity
  8
1
  6
SOLID
 62
        7
100
AcDbLine
 10
-841.854902658
 20
609.919539266
 30
0.0
 11
-571.854857656
 21
609.919539266
 31
0.0
  0
LINE
  5
3DC
100
AcDbEntity
  8
1
  6
SOLID
 62
        7
100
AcDbLine
 10
-841.854902658
 20
619.317373204
 30
0.0
 11
-571.854857656
 21
619.317373204
 31
0.0
  0
LINE
  5
3DD
100
AcDbEntity
  8
1
  6
SOLID
 62
        7
100
AcDbLine
 10
-841.854902658
 20
641.438753804
 30
0.0
 11
-571.854857656
 21
641.438753804
 31
0.0
  0
LINE
  5
3DE
100
AcDbEntity
  8
1
  6
SOLID
 62
        7
100
AcDbLine
 10
-841.854902658
 20
679.038744312
 30
0.0
 11
-571.854857656
 21
679.038744312
 31
0.0
  0
LINE
  5
3DF
100
AcDbEntity
  8
1
  6
SOLID
 62
        7
100
AcDbLine
 10
-841.854902658
 20
921.086807576
 30
0.0
 11
-571.854857656
 21
921.086807576
 31
0.0
  0
LINE
  5
3E0
100
AcDbEntity
  8
1
  6
SOLID
 62
        7
100
AcDbLine
 10
-841.854902658
 20
920.386807566
 30
0.0
 11
-571.854857656
 21
920.386807566
 31
0.0
  0
LINE
  5
3E1
100
AcDbEntity
  8
1
  6
SOLID
 62
        7
100
AcDbLine
 10
-841.854902658
 20
918.386807566
 30
0.0
 11
-571.854857656
 21
918.386807566
 31
0.0
  0
LINE
  5
3E2
100
AcDbEntity
  8
1
  6
SOLID
 62
        7
100
AcDbLine
 10
-841.854902658
 20
915.459582959
 30
0.0
 11
-571.854857656
 21
915.459582959
 31
0.0
  0
LINE
  5
3E3
100
AcDbEntity
  8
1
  6
SOLID
 62
        7
100
AcDbLine
 10
-841.854902658
 20
911.135441086
 30
0.0
 11
-571.854857656
 21
911.135441086
 31
0.0
  0
LINE
  5
3E4
100
AcDbEntity
  8
1
  6
SOLID
 62
        7
100
AcDbLine
 10
-841.854902658
 20
905.439763938
 30
0.0
 11
-571.854857656
 21
905.439763938
 31
0.0
  0
LINE
  5
3E5
100
AcDbEntity
  8
1
  6
SOLID
 62
        7
100
AcDbLine
 10
-841.854902658
 20
898.157960123
 30
0.0
 11
-571.854857656
 21
898.157960123
 31
0.0
  0
LINE
  5
3E6
100
AcDbEntity
  8
1
  6
SOLID
 62
        7
100
AcDbLine
 10
-841.854902658
 20
888.760126186
 30
0.0
 11
-571.854857656
 21
888.760126186
 31
0.0
  0
LINE
  5
3E7
100
AcDbEntity
  8
1
  6
CENTER
 62
        7
100
AcDbLine
 10
-399.854564708
 20
821.038749695
 30
0.0
 11
-399.854564708
 21
754.038749695
 31
0.0
  0
LINE
  5
3E8
100
AcDbEntity
  8
1
  6
CENTER
 62
        7
100
AcDbLine
 10
-413.854564708
 20
821.038749695
 30
0.0
 11
-413.854564708
 21
754.038749695
 31
0.0
  0
LINE
  5
3E9
100
AcDbEntity
  8
1
  6
CENTER
 62
        7
100
AcDbLine
 10
-469.854564708
 20
821.038749695
 30
0.0
 11
-469.854564708
 21
754.038749695
 31
0.0
  0
LINE
  5
3EA
100
AcDbEntity
  8
1
  6
SOLID
 62
        7
100
AcDbLine
 10
-571.854857656
 20
921.03872456
 30
0.0
 11
-571.854857656
 21
871.038749695
 31
0.0
  0
LINE
  5
3EB
100
AcDbEntity
  8
1
  6
SOLID
 62
        7
100
AcDbLine
 10
-841.854902658
 20
829.038755078
 30
0.0
 11
-571.854857656
 21
829.038755078
 31
0.0
  0
LINE
  5
3EC
100
AcDbEntity
  8
1
  6
CENTER
 62
        7
100
AcDbLine
 10
-455.854564708
 20
821.038749695
 30
0.0
 11
-455.854564708
 21
754.038749695
 31
0.0
  0
LINE
  5
3ED
100
AcDbEntity
  8
1
  6
CENTER
 62
        7
100
AcDbLine
 10
-441.854564708
 20
821.038749695
 30
0.0
 11
-441.854564708
 21
754.038749695
 31
0.0
  0
LINE
  5
3EE
100
AcDbEntity
  8
1
  6
CENTER
 62
        7
100
AcDbLine
 10
-427.854564708
 20
821.038749695
 30
0.0
 11
-427.854564708
 21
754.038749695
 31
0.0
  0
LINE
  5
3EF
100
AcDbEntity
  8
1
  6
SOLID
 62
        7
100
AcDbLine
 10
-1048.254884523
 20
792.13681986
 30
0.0
 11
-1048.254884523
 21
715.94067953
 31
0.0
  0
LINE
  5
3F0
100
AcDbEntity
  8
1
  6
SOLID
 62
        7
100
AcDbLine
 10
-916.198046904
 20
930.452985443
 30
0.0
 11
-921.440687591
 21
935.69562613
 31
0.0
  0
LINE
  5
3F1
100
AcDbEntity
  8
1
  6
SOLID
 62
        7
100
AcDbLine
 10
-919.73358081
 20
926.917451537
 30
0.0
 11
-924.976221497
 21
932.160092225
 31
0.0
  0
LINE
  5
3F2
100
AcDbEntity
  8
1
  6
SOLID
 62
        7
100
AcDbLine
 10
-981.854901154
 20
938.038771881
 30
0.0
 11
-981.854901154
 21
933.038771881
 31
0.0
  0
LINE
  5
3F3
100
AcDbEntity
  8
1
  6
SOLID
 62
        7
100
AcDbLine
 10
-841.854902658
 20
622.038838254
 30
0.0
 11
-845.854857656
 21
622.038838254
 31
0.0
  0
LINE
  5
3F4
100
AcDbEntity
  8
1
  6
SOLID
 62
        7
100
AcDbLine
 10
-493.854872915
 20
619.038774829
 30
0.0
 11
-493.854872915
 21
754.038749695
 31
0.0
  0
MTEXT
  5
3F5
100
AcDbEntity
  8
1
  6
SOLID
 62
        7
100
AcDbMText
 10
-27.076965332
 20
198.434692383
 30
0.0
 40
18.0
 41
0.0
 71
        1
 72
        5
  1
\f|b0|i0|c177|p0;G-300 L1
  0
DIMENSION
  5
405
100
AcDbEntity
  8
1
  6
SOLID
 62
        7
100
AcDbDimension
  2
*D18
 10
-480.85458374
 20
923.986572266
 30
0.0
 11
-439.652130127
 21
931.986572266
 31
0.0
  3
18
100
AcDbAlignedDimension
 13
-360.85458374
 23
876.038696289
 33
0.0
 14
-480.85458374
 24
876.038696289
 34
0.0
100
AcDbRotatedDimension
  0
LINE
  5
406
100
AcDbEntity
  8
1
  6
SOLID
 62
        7
100
AcDbLine
 10
-906.854857656
 20
754.038694043
 30
0.0
 11
-906.854857656
 21
894.038721869
 31
0.0
  0
DIMENSION
  5
416
100
AcDbEntity
  8
1
  6
SOLID
 62
        7
100
AcDbDimension
  2
*D19
 10
-516.854858398
 20
517.799194336
 30
0.0
 11
-488.31942749
 21
525.799194336
 31
0.0
  1
  106   
  3
19
100
AcDbAlignedDimension
 13
-420.85458374
 23
733.518920898
 33
0.0
 14
-516.854858398
 24
574.038696289
 34
0.0
100
AcDbRotatedDimension
  0
LINE
  5
417
100
AcDbEntity
  8
1
  6
SOLID
 62
        7
100
AcDbLine
 10
-999.855025512
 20
294.038794671
 30
0.0
 11
-1000.255146827
 21
294.038794671
 31
0.0
  0
LINE
  5
418
100
AcDbEntity
  8
1
  6
SOLID
 62
        7
100
AcDbLine
 10
-999.855025512
 20
326.538749695
 30
0.0
 11
-983.854903853
 21
326.538749695
 31
0.0
  0
LINE
  5
419
100
AcDbEntity
  8
1
  6
SOLID
 62
        7
100
AcDbLine
 10
-923.854901154
 20
304.038749695
 30
0.0
 11
-923.854901154
 21
146.538827414
 31
0.0
  0
LINE
  5
41A
100
AcDbEntity
  8
1
  6
SOLID
 62
        7
100
AcDbLine
 10
-983.854903853
 20
283.642674552
 30
0.0
 11
-983.854903853
 21
146.538827414
 31
0.0
  0
LINE
  5
41B
100
AcDbEntity
  8
1
  6
SOLID
 62
        7
100
AcDbLine
 10
-923.854901154
 20
146.538827414
 30
0.0
 11
-1030.255194893
 21
146.538827414
 31
0.0
  0
LINE
  5
41C
100
AcDbEntity
  8
1
  6
SOLID
 62
        7
100
AcDbLine
 10
-1058.255291324
 20
249.440678719
 30
0.0
 11
-1058.255100743
 21
304.038749695
 31
0.0
  0
LINE
  5
41D
100
AcDbEntity
  8
1
  6
SOLID
 62
        7
100
AcDbLine
 10
-1000.255146827
 20
304.038749695
 30
0.0
 11
-1000.255146827
 21
268.538692449
 31
0.0
  0
LINE
  5
41E
100
AcDbEntity
  8
1
  6
SOLID
 62
        7
100
AcDbLine
 10
-1030.255194893
 20
249.440616237
 30
0.0
 11
-1030.255194893
 21
267.538692449
 31
0.0
  0
LINE
  5
41F
100
AcDbEntity
  8
1
  6
SOLID
 62
        7
100
AcDbLine
 10
-1001.255146827
 20
267.538692449
 30
0.0
 11
-1030.255194893
 21
267.538692449
 31
0.0
  0
LINE
  5
420
100
AcDbEntity
  8
1
  6
CENTER
 62
        7
100
AcDbLine
 10
-1023.736237721
 20
257.538692449
 30
0.0
 11
-1066.775291042
 21
257.538692449
 31
0.0
  0
LINE
  5
421
100
AcDbEntity
  8
1
  6
SOLID
 62
        7
100
AcDbLine
 10
-1031.755194893
 20
249.038692449
 30
0.0
 11
-1056.755282255
 21
249.038692449
 31
0.0
  0
LINE
  5
422
100
AcDbEntity
  8
1
  6
SOLID
 62
        7
100
AcDbLine
 10
-1001.255146827
 20
267.538692449
 30
0.0
 11
-1000.255146827
 21
268.538692449
 31
0.0
  0
ARC
  5
423
100
AcDbEntity
  8
1
  6
SOLID
 62
        7
100
AcDbCircle
 10
-1056.755282255
 20
252.038749695
 30
0.0
 40
3.0
100
AcDbArc
 50
240.004002837
 51
270.0
  0
ARC
  5
424
100
AcDbEntity
  8
1
  6
SOLID
 62
        7
100
AcDbCircle
 10
-1031.755194893
 20
252.038692449
 30
0.0
 40
3.0
100
AcDbArc
 50
270.0
 51
300.0
  0
LINE
  5
425
100
AcDbEntity
  8
1
  6
SOLID
 62
        7
100
AcDbLine
 10
-1030.255194893
 20
146.538827414
 30
0.0
 11
-1030.255194893
 21
304.038749695
 31
0.0
  0
LINE
  5
426
100
AcDbEntity
  8
1
  6
SOLID
 62
        7
100
AcDbLine
 10
-1030.255194893
 20
266.538749695
 30
0.0
 11
-983.854903853
 21
266.538749695
 31
0.0
  0
ARC
  5
427
100
AcDbEntity
  8
1
  6
SOLID
 62
        7
100
AcDbCircle
 10
-1059.526167677
 20
253.728180658
 30
0.0
 40
2.249123365
100
AcDbArc
 50
145.615740999
 51
214.384259001
  0
LINE
  5
428
100
AcDbEntity
  8
1
  6
SOLID
 62
        7
100
AcDbLine
 10
-1061.382298752
 20
252.458010061
 30
0.0
 11
-1058.475290921
 21
252.458010061
 31
0.0
  0
LINE
  5
429
100
AcDbEntity
  8
1
  6
SOLID
 62
        7
100
AcDbLine
 10
-1061.382298752
 20
254.998351255
 30
0.0
 11
-1058.475290921
 21
254.998351255
 31
0.0
  0
LINE
  5
42A
100
AcDbEntity
  8
1
  6
SOLID
 62
        7
100
AcDbLine
 10
-1058.475290921
 20
253.51544233
 30
0.0
 11
-1058.255290913
 21
253.51544233
 31
0.0
  0
ARC
  5
42B
100
AcDbEntity
  8
1
  6
SOLID
 62
        7
100
AcDbCircle
 10
-1059.526167677
 20
261.34920424
 30
0.0
 40
2.249123365
100
AcDbArc
 50
145.615740999
 51
214.384259001
  0
LINE
  5
42C
100
AcDbEntity
  8
1
  6
SOLID
 62
        7
100
AcDbLine
 10
-1058.475290921
 20
262.619374837
 30
0.0
 11
-1061.382298752
 21
262.619374837
 31
0.0
  0
LINE
  5
42D
100
AcDbEntity
  8
1
  6
SOLID
 62
        7
100
AcDbLine
 10
-1061.382298752
 20
260.079033643
 30
0.0
 11
-1058.475290921
 21
260.079033643
 31
0.0
  0
LINE
  5
42E
100
AcDbEntity
  8
1
  6
SOLID
 62
        7
100
AcDbLine
 10
-1058.255290913
 20
261.561942567
 30
0.0
 11
-1058.475290921
 21
261.561942567
 31
0.0
  0
ARC
  5
42F
100
AcDbEntity
  8
1
  6
SOLID
 62
        7
100
AcDbCircle
 10
-1053.368286016
 20
257.538692449
 30
0.0
 40
8.407005026
100
AcDbArc
 50
162.412040055
 51
197.587959945
  0
LINE
  5
430
100
AcDbEntity
  8
1
  6
SOLID
 62
        7
100
AcDbLine
 10
-1061.775291042
 20
253.728180658
 30
0.0
 11
-1061.775291042
 21
261.34920424
 31
0.0
  0
LINE
  5
431
100
AcDbEntity
  8
1
  6
SOLID
 62
        7
100
AcDbLine
 10
-1058.475290921
 20
252.458010061
 30
0.0
 11
-1058.475290921
 21
262.619374837
 31
0.0
  0
LINE
  5
432
100
AcDbEntity
  8
1
  6
SOLID
 62
        7
100
AcDbLine
 10
-1030.255194893
 20
146.538827414
 30
0.0
 11
-1030.255194893
 21
304.038749695
 31
0.0
  0
LINE
  5
433
100
AcDbEntity
  8
1
  6
SOLID
 62
        7
100
AcDbLine
 10
-1035.940717706
 20
194.276231766
 30
0.0
 11
-1030.655249038
 21
194.276231766
 31
0.0
  0
LINE
  5
434
100
AcDbEntity
  8
1
  6
SOLID
 62
        7
100
AcDbLine
 10
-1035.940717706
 20
189.657429695
 30
0.0
 11
-1030.655249038
 21
189.657429695
 31
0.0
  0
ARC
  5
435
100
AcDbEntity
  8
1
  6
SOLID
 62
        7
100
AcDbCircle
 10
-1032.565934006
 20
191.96683073
 30
0.0
 40
4.089315121
100
AcDbArc
 50
145.615740999
 51
214.384259001
  0
LINE
  5
436
100
AcDbEntity
  8
1
  6
SOLID
 62
        7
100
AcDbLine
 10
-1030.655249038
 20
175.801023483
 30
0.0
 11
-1035.940717706
 21
175.801023483
 31
0.0
  0
ARC
  5
437
100
AcDbEntity
  8
1
  6
SOLID
 62
        7
100
AcDbCircle
 10
-1032.565934006
 20
178.110424519
 30
0.0
 40
4.089315121
100
AcDbArc
 50
145.615740999
 51
214.384259001
  0
LINE
  5
438
100
AcDbEntity
  8
1
  6
SOLID
 62
        7
100
AcDbLine
 10
-1035.940717706
 20
180.419825554
 30
0.0
 11
-1030.655249038
 21
180.419825554
 31
0.0
  0
ARC
  5
439
100
AcDbEntity
  8
1
  6
SOLID
 62
        7
100
AcDbCircle
 10
-1021.369785775
 20
185.038627625
 30
0.0
 40
15.285463353
100
AcDbArc
 50
162.412040055
 51
197.587959945
  0
LINE
  5
43A
100
AcDbEntity
  8
1
  6
SOLID
 62
        7
100
AcDbLine
 10
-1036.655249128
 20
191.96683073
 30
0.0
 11
-1036.655249128
 21
178.110424519
 31
0.0
  0
LINE
  5
43B
100
AcDbEntity
  8
1
  6
SOLID
 62
        7
100
AcDbLine
 10
-999.855025512
 20
281.538749695
 30
0.0
 11
-983.854903853
 21
281.538749695
 31
0.0
  0
ARC
  5
43C
100
AcDbEntity
  8
1
  6
SOLID
 62
        7
100
AcDbCircle
 10
-1032.565879867
 20
221.110668659
 30
0.0
 40
4.089315121
100
AcDbArc
 50
145.615740999
 51
214.384259001
  0
LINE
  5
43D
100
AcDbEntity
  8
1
  6
SOLID
 62
        7
100
AcDbLine
 10
-1030.655194899
 20
220.723871708
 30
0.0
 11
-1030.255194893
 21
220.723871708
 31
0.0
  0
LINE
  5
43E
100
AcDbEntity
  8
1
  6
SOLID
 62
        7
100
AcDbLine
 10
-1035.940663567
 20
218.801267624
 30
0.0
 11
-1030.655194899
 21
218.801267624
 31
0.0
  0
LINE
  5
43F
100
AcDbEntity
  8
1
  6
SOLID
 62
        7
100
AcDbLine
 10
-1035.940663567
 20
223.420069695
 30
0.0
 11
-1030.655194899
 21
223.420069695
 31
0.0
  0
LINE
  5
440
100
AcDbEntity
  8
1
  6
SOLID
 62
        7
100
AcDbLine
 10
-1030.655194899
 20
218.801267624
 30
0.0
 11
-1030.655194899
 21
237.276475906
 31
0.0
  0
LINE
  5
441
100
AcDbEntity
  8
1
  6
SOLID
 62
        7
100
AcDbLine
 10
-1030.255194893
 20
235.353871822
 30
0.0
 11
-1030.655194899
 21
235.353871822
 31
0.0
  0
LINE
  5
442
100
AcDbEntity
  8
1
  6
SOLID
 62
        7
100
AcDbLine
 10
-1030.655194899
 20
237.276475906
 30
0.0
 11
-1035.940663567
 21
237.276475906
 31
0.0
  0
LINE
  5
443
100
AcDbEntity
  8
1
  6
SOLID
 62
        7
100
AcDbLine
 10
-904.992665291
 20
206.163105011
 30
0.0
 11
-915.917020798
 21
206.163105011
 31
0.0
  0
ARC
  5
444
100
AcDbEntity
  8
1
  6
SOLID
 62
        7
100
AcDbCircle
 10
-911.487616435
 20
203.132016182
 30
0.0
 40
5.367226705
100
AcDbArc
 50
145.615745828
 51
214.384254172
  0
ARC
  5
445
100
AcDbEntity
  8
1
  6
SOLID
 62
        7
100
AcDbCircle
 10
-896.792669833
 20
194.038749695
 30
0.0
 40
20.062173307
100
AcDbArc
 50
162.412042639
 51
197.587957361
  0
ARC
  5
446
100
AcDbEntity
  8
1
  6
SOLID
 62
        7
100
AcDbCircle
 10
-911.487616435
 20
184.945483208
 30
0.0
 40
5.367226705
100
AcDbArc
 50
145.615745828
 51
214.384254172
  0
LINE
  5
447
100
AcDbEntity
  8
1
  6
SOLID
 62
        7
100
AcDbLine
 10
-915.917020798
 20
181.914394379
 30
0.0
 11
-904.992665291
 21
181.914394379
 31
0.0
  0
ARC
  5
448
100
AcDbEntity
  8
1
  6
SOLID
 62
        7
100
AcDbCircle
 10
-909.422069654
 20
184.945483208
 30
0.0
 40
5.367226705
100
AcDbArc
 50
325.615745828
 51
34.384254172
  0
ARC
  5
449
100
AcDbEntity
  8
1
  6
SOLID
 62
        7
100
AcDbCircle
 10
-924.117016256
 20
194.038749695
 30
0.0
 40
20.062173307
100
AcDbArc
 50
342.412042639
 51
17.587957361
  0
ARC
  5
44A
100
AcDbEntity
  8
1
  6
SOLID
 62
        7
100
AcDbCircle
 10
-909.422069654
 20
203.132016182
 30
0.0
 40
5.367226705
100
AcDbArc
 50
325.615745828
 51
34.384254172
  0
LINE
  5
44B
100
AcDbEntity
  8
1
  6
SOLID
 62
        7
100
AcDbLine
 10
-915.917020798
 20
200.100927353
 30
0.0
 11
-904.992665291
 21
200.100927353
 31
0.0
  0
LINE
  5
44C
100
AcDbEntity
  8
1
  6
SOLID
 62
        7
100
AcDbLine
 10
-916.85484314
 20
203.132016182
 30
0.0
 11
-916.85484314
 21
184.945483208
 31
0.0
  0
LINE
  5
44D
100
AcDbEntity
  8
1
  6
SOLID
 62
        7
100
AcDbLine
 10
-915.917020798
 20
187.976572037
 30
0.0
 11
-904.992665291
 21
187.976572037
 31
0.0
  0
LINE
  5
44E
100
AcDbEntity
  8
1
  6
SOLID
 62
        7
100
AcDbLine
 10
-904.054842949
 20
184.945483208
 30
0.0
 11
-904.054842949
 21
203.132016182
 31
0.0
  0
LINE
  5
44F
100
AcDbEntity
  8
1
  6
CENTER
 62
        7
100
AcDbLine
 10
-910.454857561
 20
194.038749695
 30
0.0
 11
-902.134857389
 21
194.038749695
 31
0.0
  0
LINE
  5
450
100
AcDbEntity
  8
1
  6
CENTER
 62
        7
100
AcDbLine
 10
-910.454857561
 20
194.038749695
 30
0.0
 11
-918.774857733
 21
194.038749695
 31
0.0
  0
LINE
  5
451
100
AcDbEntity
  8
1
  6
SOLID
 62
        7
100
AcDbLine
 10
-526.992695808
 20
206.163105011
 30
0.0
 11
-537.917051315
 21
206.163105011
 31
0.0
  0
ARC
  5
452
100
AcDbEntity
  8
1
  6
SOLID
 62
        7
100
AcDbCircle
 10
-533.487646952
 20
203.132016182
 30
0.0
 40
5.367226705
100
AcDbArc
 50
145.615745828
 51
214.384254172
  0
ARC
  5
453
100
AcDbEntity
  8
1
  6
SOLID
 62
        7
100
AcDbCircle
 10
-518.79270035
 20
194.038749695
 30
0.0
 40
20.062173307
100
AcDbArc
 50
162.412042639
 51
197.587957361
  0
ARC
  5
454
100
AcDbEntity
  8
1
  6
SOLID
 62
        7
100
AcDbCircle
 10
-533.487646952
 20
184.945483208
 30
0.0
 40
5.367226705
100
AcDbArc
 50
145.615745828
 51
214.384254172
  0
LINE
  5
455
100
AcDbEntity
  8
1
  6
SOLID
 62
        7
100
AcDbLine
 10
-537.917051315
 20
181.914394379
 30
0.0
 11
-526.992695808
 21
181.914394379
 31
0.0
  0
ARC
  5
456
100
AcDbEntity
  8
1
  6
SOLID
 62
        7
100
AcDbCircle
 10
-531.422100171
 20
184.945483208
 30
0.0
 40
5.367226705
100
AcDbArc
 50
325.615745828
 51
34.384254172
  0
ARC
  5
457
100
AcDbEntity
  8
1
  6
SOLID
 62
        7
100
AcDbCircle
 10
-546.117046774
 20
194.038749695
 30
0.0
 40
20.062173307
100
AcDbArc
 50
342.412042639
 51
17.587957361
  0
ARC
  5
458
100
AcDbEntity
  8
1
  6
SOLID
 62
        7
100
AcDbCircle
 10
-531.422100171
 20
203.132016182
 30
0.0
 40
5.367226705
100
AcDbArc
 50
325.615745828
 51
34.384254172
  0
LINE
  5
459
100
AcDbEntity
  8
1
  6
SOLID
 62
        7
100
AcDbLine
 10
-537.917051315
 20
200.100927353
 30
0.0
 11
-526.992695808
 21
200.100927353
 31
0.0
  0
LINE
  5
45A
100
AcDbEntity
  8
1
  6
SOLID
 62
        7
100
AcDbLine
 10
-538.854873657
 20
203.132016182
 30
0.0
 11
-538.854873657
 21
184.945483208
 31
0.0
  0
LINE
  5
45B
100
AcDbEntity
  8
1
  6
SOLID
 62
        7
100
AcDbLine
 10
-537.917051315
 20
187.976572037
 30
0.0
 11
-526.992695808
 21
187.976572037
 31
0.0
  0
LINE
  5
45C
100
AcDbEntity
  8
1
  6
SOLID
 62
        7
100
AcDbLine
 10
-526.054873466
 20
184.945483208
 30
0.0
 11
-526.054873466
 21
203.132016182
 31
0.0
  0
LINE
  5
45D
100
AcDbEntity
  8
1
  6
SOLID
 62
        7
100
AcDbLine
 10
-904.992665291
 20
401.914394379
 30
0.0
 11
-915.917020798
 21
401.914394379
 31
0.0
  0
ARC
  5
45E
100
AcDbEntity
  8
1
  6
SOLID
 62
        7
100
AcDbCircle
 10
-911.487616435
 20
404.945483208
 30
0.0
 40
5.367226705
100
AcDbArc
 50
145.615745828
 51
214.384254172
  0
ARC
  5
45F
100
AcDbEntity
  8
1
  6
SOLID
 62
        7
100
AcDbCircle
 10
-896.792669833
 20
414.038749695
 30
0.0
 40
20.062173307
100
AcDbArc
 50
162.412042639
 51
197.587957361
  0
ARC
  5
460
100
AcDbEntity
  8
1
  6
SOLID
 62
        7
100
AcDbCircle
 10
-911.487616435
 20
423.132016182
 30
0.0
 40
5.367226705
100
AcDbArc
 50
145.615745828
 51
214.384254172
  0
LINE
  5
461
100
AcDbEntity
  8
1
  6
SOLID
 62
        7
100
AcDbLine
 10
-915.917020798
 20
426.163105011
 30
0.0
 11
-904.992665291
 21
426.163105011
 31
0.0
  0
ARC
  5
462
100
AcDbEntity
  8
1
  6
SOLID
 62
        7
100
AcDbCircle
 10
-909.422069654
 20
423.132016182
 30
0.0
 40
5.367226705
100
AcDbArc
 50
325.615745828
 51
34.384254172
  0
ARC
  5
463
100
AcDbEntity
  8
1
  6
SOLID
 62
        7
100
AcDbCircle
 10
-924.117016256
 20
414.038749695
 30
0.0
 40
20.062173307
100
AcDbArc
 50
342.412042639
 51
17.587957361
  0
ARC
  5
464
100
AcDbEntity
  8
1
  6
SOLID
 62
        7
100
AcDbCircle
 10
-909.422069654
 20
404.945483208
 30
0.0
 40
5.367226705
100
AcDbArc
 50
325.615745828
 51
34.384254172
  0
LINE
  5
465
100
AcDbEntity
  8
1
  6
SOLID
 62
        7
100
AcDbLine
 10
-915.917020798
 20
407.976572037
 30
0.0
 11
-904.992665291
 21
407.976572037
 31
0.0
  0
LINE
  5
466
100
AcDbEntity
  8
1
  6
SOLID
 62
        7
100
AcDbLine
 10
-916.85484314
 20
404.945483208
 30
0.0
 11
-916.85484314
 21
423.132016182
 31
0.0
  0
LINE
  5
467
100
AcDbEntity
  8
1
  6
SOLID
 62
        7
100
AcDbLine
 10
-915.917020798
 20
420.100927353
 30
0.0
 11
-904.992665291
 21
420.100927353
 31
0.0
  0
LINE
  5
468
100
AcDbEntity
  8
1
  6
SOLID
 62
        7
100
AcDbLine
 10
-904.054842949
 20
423.132016182
 30
0.0
 11
-904.054842949
 21
404.945483208
 31
0.0
  0
LINE
  5
469
100
AcDbEntity
  8
1
  6
CENTER
 62
        7
100
AcDbLine
 10
-910.454857561
 20
414.038749695
 30
0.0
 11
-902.134857389
 21
414.038749695
 31
0.0
  0
LINE
  5
46A
100
AcDbEntity
  8
1
  6
CENTER
 62
        7
100
AcDbLine
 10
-910.454857561
 20
414.038749695
 30
0.0
 11
-918.774857733
 21
414.038749695
 31
0.0
  0
LINE
  5
46B
100
AcDbEntity
  8
1
  6
SOLID
 62
        7
100
AcDbLine
 10
-526.992695808
 20
401.914394379
 30
0.0
 11
-537.917051315
 21
401.914394379
 31
0.0
  0
ARC
  5
46C
100
AcDbEntity
  8
1
  6
SOLID
 62
        7
100
AcDbCircle
 10
-533.487646952
 20
404.945483208
 30
0.0
 40
5.367226705
100
AcDbArc
 50
145.615745828
 51
214.384254172
  0
ARC
  5
46D
100
AcDbEntity
  8
1
  6
SOLID
 62
        7
100
AcDbCircle
 10
-518.79270035
 20
414.038749695
 30
0.0
 40
20.062173307
100
AcDbArc
 50
162.412042639
 51
197.587957361
  0
ARC
  5
46E
100
AcDbEntity
  8
1
  6
SOLID
 62
        7
100
AcDbCircle
 10
-533.487646952
 20
423.132016182
 30
0.0
 40
5.367226705
100
AcDbArc
 50
145.615745828
 51
214.384254172
  0
LINE
  5
46F
100
AcDbEntity
  8
1
  6
SOLID
 62
        7
100
AcDbLine
 10
-537.917051315
 20
426.163105011
 30
0.0
 11
-526.992695808
 21
426.163105011
 31
0.0
  0
ARC
  5
470
100
AcDbEntity
  8
1
  6
SOLID
 62
        7
100
AcDbCircle
 10
-531.422100171
 20
423.132016182
 30
0.0
 40
5.367226705
100
AcDbArc
 50
325.615745828
 51
34.384254172
  0
ARC
  5
471
100
AcDbEntity
  8
1
  6
SOLID
 62
        7
100
AcDbCircle
 10
-546.117046774
 20
414.038749695
 30
0.0
 40
20.062173307
100
AcDbArc
 50
342.412042639
 51
17.587957361
  0
ARC
  5
472
100
AcDbEntity
  8
1
  6
SOLID
 62
        7
100
AcDbCircle
 10
-531.422100171
 20
404.945483208
 30
0.0
 40
5.367226705
100
AcDbArc
 50
325.615745828
 51
34.384254172
  0
LINE
  5
473
100
AcDbEntity
  8
1
  6
SOLID
 62
        7
100
AcDbLine
 10
-537.917051315
 20
407.976572037
 30
0.0
 11
-526.992695808
 21
407.976572037
 31
0.0
  0
LINE
  5
474
100
AcDbEntity
  8
1
  6
SOLID
 62
        7
100
AcDbLine
 10
-538.854873657
 20
404.945483208
 30
0.0
 11
-538.854873657
 21
423.132016182
 31
0.0
  0
LINE
  5
475
100
AcDbEntity
  8
1
  6
SOLID
 62
        7
100
AcDbLine
 10
-537.917051315
 20
420.100927353
 30
0.0
 11
-526.992695808
 21
420.100927353
 31
0.0
  0
LINE
  5
476
100
AcDbEntity
  8
1
  6
SOLID
 62
        7
100
AcDbLine
 10
-526.054873466
 20
423.132016182
 30
0.0
 11
-526.054873466
 21
404.945483208
 31
0.0
  0
LINE
  5
477
100
AcDbEntity
  8
1
  6
SOLID
 62
        7
100
AcDbLine
 10
-829.854904175
 20
375.482125401
 30
0.0
 11
-832.354904222
 21
376.925501128
 31
0.0
  0
LINE
  5
478
100
AcDbEntity
  8
1
  6
SOLID
 62
        7
100
AcDbLine
 10
-832.354904175
 20
376.925501108
 30
0.0
 11
-834.854904222
 21
375.482125382
 31
0.0
  0
LINE
  5
479
100
AcDbEntity
  8
1
  6
SOLID
 62
        7
100
AcDbLine
 10
-834.854904175
 20
375.482125401
 30
0.0
 11
-834.854904175
 21
372.595373988
 31
0.0
  0
LINE
  5
47A
100
AcDbEntity
  8
1
  6
SOLID
 62
        7
100
AcDbLine
 10
-834.854904175
 20
372.595373988
 30
0.0
 11
-832.354904128
 21
371.151998262
 31
0.0
  0
LINE
  5
47B
100
AcDbEntity
  8
1
  6
SOLID
 62
        7
100
AcDbLine
 10
-832.354904175
 20
371.151998281
 30
0.0
 11
-829.854904128
 21
372.595374008
 31
0.0
  0
LINE
  5
47C
100
AcDbEntity
  8
1
  6
SOLID
 62
        7
100
AcDbLine
 10
-829.854904175
 20
372.595373988
 30
0.0
 11
-829.854904175
 21
375.482125401
 31
0.0
  0
CIRCLE
  5
47D
100
AcDbEntity
  8
1
  6
SOLID
 62
        7
100
AcDbCircle
 10
-832.354904175
 20
374.038749695
 30
0.0
 40
5.0
  0
LINE
  5
47E
100
AcDbEntity
  8
1
  6
CENTER
 62
        7
100
AcDbLine
 10
-832.354901154
 20
374.038749695
 30
0.0
 11
-826.604901154
 21
374.038749695
 31
0.0
  0
LINE
  5
47F
100
AcDbEntity
  8
1
  6
CENTER
 62
        7
100
AcDbLine
 10
-832.354901154
 20
374.038749695
 30
0.0
 11
-838.104901154
 21
374.038749695
 31
0.0
  0
LINE
  5
480
100
AcDbEntity
  8
1
  6
CENTER
 62
        7
100
AcDbLine
 10
-832.354901154
 20
374.038749695
 30
0.0
 11
-832.354901154
 21
379.788749695
 31
0.0
  0
LINE
  5
481
100
AcDbEntity
  8
1
  6
CENTER
 62
        7
100
AcDbLine
 10
-832.354901154
 20
374.038749695
 30
0.0
 11
-832.354901154
 21
368.288749695
 31
0.0
  0
LINE
  5
482
100
AcDbEntity
  8
1
  6
SOLID
 62
        7
100
AcDbLine
 10
-829.854904175
 20
235.482125401
 30
0.0
 11
-832.354904222
 21
236.925501128
 31
0.0
  0
LINE
  5
483
100
AcDbEntity
  8
1
  6
SOLID
 62
        7
100
AcDbLine
 10
-832.354904175
 20
236.925501108
 30
0.0
 11
-834.854904222
 21
235.482125382
 31
0.0
  0
LINE
  5
484
100
AcDbEntity
  8
1
  6
SOLID
 62
        7
100
AcDbLine
 10
-834.854904175
 20
235.482125401
 30
0.0
 11
-834.854904175
 21
232.595373988
 31
0.0
  0
LINE
  5
485
100
AcDbEntity
  8
1
  6
SOLID
 62
        7
100
AcDbLine
 10
-834.854904175
 20
232.595373988
 30
0.0
 11
-832.354904128
 21
231.151998262
 31
0.0
  0
LINE
  5
486
100
AcDbEntity
  8
1
  6
SOLID
 62
        7
100
AcDbLine
 10
-832.354904175
 20
231.151998281
 30
0.0
 11
-829.854904128
 21
232.595374008
 31
0.0
  0
LINE
  5
487
100
AcDbEntity
  8
1
  6
SOLID
 62
        7
100
AcDbLine
 10
-829.854904175
 20
232.595373988
 30
0.0
 11
-829.854904175
 21
235.482125401
 31
0.0
  0
CIRCLE
  5
488
100
AcDbEntity
  8
1
  6
SOLID
 62
        7
100
AcDbCircle
 10
-832.354904175
 20
234.038749695
 30
0.0
 40
5.0
  0
LINE
  5
489
100
AcDbEntity
  8
1
  6
CENTER
 62
        7
100
AcDbLine
 10
-832.354901154
 20
234.038749695
 30
0.0
 11
-826.604901154
 21
234.038749695
 31
0.0
  0
LINE
  5
48A
100
AcDbEntity
  8
1
  6
CENTER
 62
        7
100
AcDbLine
 10
-832.354901154
 20
234.038749695
 30
0.0
 11
-838.104901154
 21
234.038749695
 31
0.0
  0
LINE
  5
48B
100
AcDbEntity
  8
1
  6
CENTER
 62
        7
100
AcDbLine
 10
-832.354901154
 20
234.038749695
 30
0.0
 11
-832.354901154
 21
239.788749695
 31
0.0
  0
LINE
  5
48C
100
AcDbEntity
  8
1
  6
CENTER
 62
        7
100
AcDbLine
 10
-832.354901154
 20
234.038749695
 30
0.0
 11
-832.354901154
 21
228.288749695
 31
0.0
  0
LINE
  5
48D
100
AcDbEntity
  8
1
  6
SOLID
 62
        7
100
AcDbLine
 10
-726.354904175
 20
305.482125401
 30
0.0
 11
-728.854904222
 21
306.925501128
 31
0.0
  0
LINE
  5
48E
100
AcDbEntity
  8
1
  6
SOLID
 62
        7
100
AcDbLine
 10
-728.854904175
 20
306.925501108
 30
0.0
 11
-731.354904222
 21
305.482125382
 31
0.0
  0
LINE
  5
48F
100
AcDbEntity
  8
1
  6
SOLID
 62
        7
100
AcDbLine
 10
-731.354904175
 20
305.482125401
 30
0.0
 11
-731.354904175
 21
302.595373988
 31
0.0
  0
LINE
  5
490
100
AcDbEntity
  8
1
  6
SOLID
 62
        7
100
AcDbLine
 10
-731.354904175
 20
302.595373988
 30
0.0
 11
-728.854904128
 21
301.151998262
 31
0.0
  0
LINE
  5
491
100
AcDbEntity
  8
1
  6
SOLID
 62
        7
100
AcDbLine
 10
-728.854904175
 20
301.151998281
 30
0.0
 11
-726.354904128
 21
302.595374008
 31
0.0
  0
LINE
  5
492
100
AcDbEntity
  8
1
  6
SOLID
 62
        7
100
AcDbLine
 10
-726.354904175
 20
302.595373988
 30
0.0
 11
-726.354904175
 21
305.482125401
 31
0.0
  0
CIRCLE
  5
493
100
AcDbEntity
  8
1
  6
SOLID
 62
        7
100
AcDbCircle
 10
-728.854904175
 20
304.038749695
 30
0.0
 40
5.0
  0
LINE
  5
494
100
AcDbEntity
  8
1
  6
CENTER
 62
        7
100
AcDbLine
 10
-728.854901154
 20
304.038749695
 30
0.0
 11
-723.104901154
 21
304.038749695
 31
0.0
  0
LINE
  5
495
100
AcDbEntity
  8
1
  6
CENTER
 62
        7
100
AcDbLine
 10
-728.854901154
 20
304.038749695
 30
0.0
 11
-734.604901154
 21
304.038749695
 31
0.0
  0
LINE
  5
496
100
AcDbEntity
  8
1
  6
CENTER
 62
        7
100
AcDbLine
 10
-728.854901154
 20
304.038749695
 30
0.0
 11
-728.854901154
 21
309.788749695
 31
0.0
  0
LINE
  5
497
100
AcDbEntity
  8
1
  6
CENTER
 62
        7
100
AcDbLine
 10
-728.854901154
 20
304.038749695
 30
0.0
 11
-728.854901154
 21
298.288749695
 31
0.0
  0
ARC
  5
498
100
AcDbEntity
  8
1
  6
SOLID
 62
        7
100
AcDbCircle
 10
-1032.565879867
 20
234.967074871
 30
0.0
 40
4.089315121
100
AcDbArc
 50
145.615740999
 51
214.384259001
  0
LINE
  5
499
100
AcDbEntity
  8
1
  6
SOLID
 62
        7
100
AcDbLine
 10
-1035.940663567
 20
232.657673836
 30
0.0
 11
-1030.655194899
 21
232.657673836
 31
0.0
  0
ARC
  5
49A
100
AcDbEntity
  8
1
  6
SOLID
 62
        7
100
AcDbCircle
 10
-1021.369731636
 20
228.038871765
 30
0.0
 40
15.285463353
100
AcDbArc
 50
162.412040055
 51
197.587959945
  0
LINE
  5
49B
100
AcDbEntity
  8
1
  6
SOLID
 62
        7
100
AcDbLine
 10
-1036.655194989
 20
221.110668659
 30
0.0
 11
-1036.655194989
 21
234.967074871
 31
0.0
  0
LINE
  5
49C
100
AcDbEntity
  8
1
  6
SOLID
 62
        7
100
AcDbLine
 10
-999.855025512
 20
281.538749695
 30
0.0
 11
-999.855025512
 21
326.538749695
 31
0.0
  0
LINE
  5
49D
100
AcDbEntity
  8
1
  6
SOLID
 62
        7
100
AcDbLine
 10
-1058.475290921
 20
355.619489329
 30
0.0
 11
-1061.382298752
 21
355.619489329
 31
0.0
  0
LINE
  5
49E
100
AcDbEntity
  8
1
  6
SOLID
 62
        7
100
AcDbLine
 10
-1058.255290913
 20
354.56205706
 30
0.0
 11
-1058.475290921
 21
354.56205706
 31
0.0
  0
ARC
  5
49F
100
AcDbEntity
  8
1
  6
SOLID
 62
        7
100
AcDbCircle
 10
-1056.755282255
 20
356.038749695
 30
0.0
 40
3.0
100
AcDbArc
 50
90.0
 51
119.995997163
  0
LINE
  5
4A0
100
AcDbEntity
  8
1
  6
SOLID
 62
        7
100
AcDbLine
 10
-1031.755194893
 20
359.038806941
 30
0.0
 11
-1056.755282255
 21
359.038806941
 31
0.0
  0
LINE
  5
4A1
100
AcDbEntity
  8
1
  6
CENTER
 62
        7
100
AcDbLine
 10
-362.085575413
 20
304.038749695
 30
0.0
 11
-1056.775080364
 21
304.038749695
 31
0.0
  0
LINE
  5
4A2
100
AcDbEntity
  8
1
  6
SOLID
 62
        7
100
AcDbLine
 10
-900.855025512
 20
391.038749695
 30
0.0
 11
-914.855025512
 21
391.038749695
 31
0.0
  0
ARC
  5
4A3
100
AcDbEntity
  8
1
  6
SOLID
 62
        7
100
AcDbCircle
 10
-914.855025512
 20
393.038749695
 30
0.0
 40
2.0
100
AcDbArc
 50
180.0
 51
270.0
  0
LINE
  5
4A4
100
AcDbEntity
  8
1
  6
SOLID
 62
        7
100
AcDbLine
 10
-898.855025512
 20
379.038749695
 30
0.0
 11
-898.855025512
 21
389.038749695
 31
0.0
  0
ARC
  5
4A5
100
AcDbEntity
  8
1
  6
SOLID
 62
        7
100
AcDbCircle
 10
-900.855025512
 20
389.038749695
 30
0.0
 40
2.0
100
AcDbArc
 50
0.0
 51
90.0
  0
ARC
  5
4A6
100
AcDbEntity
  8
1
  6
SOLID
 62
        7
100
AcDbCircle
 10
-914.855025512
 20
215.038749695
 30
0.0
 40
2.0
100
AcDbArc
 50
90.0
 51
180.0
  0
ARC
  5
4A7
100
AcDbEntity
  8
1
  6
SOLID
 62
        7
100
AcDbCircle
 10
-900.855025512
 20
219.038749695
 30
0.0
 40
2.0
100
AcDbArc
 50
270.0
 51
0.0
  0
LINE
  5
4A8
100
AcDbEntity
  8
1
  6
SOLID
 62
        7
100
AcDbLine
 10
-898.855025512
 20
229.038749695
 30
0.0
 11
-898.855025512
 21
219.038749695
 31
0.0
  0
LINE
  5
4A9
100
AcDbEntity
  8
1
  6
SOLID
 62
        7
100
AcDbLine
 10
-900.855025512
 20
217.038749695
 30
0.0
 11
-914.855025512
 21
217.038749695
 31
0.0
  0
LINE
  5
4AA
100
AcDbEntity
  8
1
  6
SOLID
 62
        7
100
AcDbLine
 10
-855.855025512
 20
187.038749695
 30
0.0
 11
-855.855025512
 21
167.038749695
 31
0.0
  0
LINE
  5
4AB
100
AcDbEntity
  8
1
  6
SOLID
 62
        7
100
AcDbLine
 10
-916.855025512
 20
444.038749695
 30
0.0
 11
-916.855025512
 21
379.038749695
 31
0.0
  0
LINE
  5
4AC
100
AcDbEntity
  8
1
  6
SOLID
 62
        7
100
AcDbLine
 10
-916.855025512
 20
444.038749695
 30
0.0
 11
-923.854901154
 21
444.038749695
 31
0.0
  0
LINE
  5
4AD
100
AcDbEntity
  8
1
  6
SOLID
 62
        7
100
AcDbLine
 10
-916.855025512
 20
164.038749695
 30
0.0
 11
-923.854901154
 21
164.038749695
 31
0.0
  0
LINE
  5
4AE
100
AcDbEntity
  8
1
  6
SOLID
 62
        7
100
AcDbLine
 10
-916.855025512
 20
229.038749695
 30
0.0
 11
-916.855025512
 21
164.038749695
 31
0.0
  0
LINE
  5
4AF
100
AcDbEntity
  8
1
  6
SOLID
 62
        7
100
AcDbLine
 10
-855.855025512
 20
167.038749695
 30
0.0
 11
-913.976675768
 21
165.51678072
 31
0.0
  0
LINE
  5
4B0
100
AcDbEntity
  8
1
  6
SOLID
 62
        7
100
AcDbLine
 10
-717.854901154
 20
269.038731871
 30
0.0
 11
-723.854901154
 21
269.038731871
 31
0.0
  0
LINE
  5
4B1
100
AcDbEntity
  8
1
  6
CENTER
 62
        7
100
AcDbLine
 10
-714.854901154
 20
236.038731871
 30
0.0
 11
-717.854901154
 21
236.038731871
 31
0.0
  0
LINE
  5
4B2
100
AcDbEntity
  8
1
  6
SOLID
 62
        7
100
AcDbLine
 10
-699.854901154
 20
269.038731871
 30
0.0
 11
-714.854901154
 21
269.038731871
 31
0.0
  0
LINE
  5
4B3
100
AcDbEntity
  8
1
  6
CENTER
 62
        7
100
AcDbLine
 10
-681.733248598
 20
269.038731871
 30
0.0
 11
-699.854901154
 21
269.038731871
 31
0.0
  0
LINE
  5
4B4
100
AcDbEntity
  8
1
  6
SOLID
 62
        7
100
AcDbLine
 10
-714.854901154
 20
252.538731871
 30
0.0
 11
-717.854901154
 21
252.538731871
 31
0.0
  0
ARC
  5
4B5
100
AcDbEntity
  8
1
  6
SOLID
 62
        7
100
AcDbCircle
 10
-696.854901154
 20
282.538731871
 30
0.0
 40
3.0
100
AcDbArc
 50
0.0
 51
90.802355149
  0
ARC
  5
4B6
100
AcDbEntity
  8
1
  6
SOLID
 62
        7
100
AcDbCircle
 10
-696.854901154
 20
255.538731871
 30
0.0
 40
3.0
100
AcDbArc
 50
270.0
 51
0.0
  0
LINE
  5
4B7
100
AcDbEntity
  8
1
  6
SOLID
 62
        7
100
AcDbLine
 10
-696.854901154
 20
252.538731871
 30
0.0
 11
-699.854901154
 21
252.538731871
 31
0.0
  0
LINE
  5
4B8
100
AcDbEntity
  8
1
  6
SOLID
 62
        7
100
AcDbLine
 10
-696.854901154
 20
285.538731871
 30
0.0
 11
-696.896861262
 21
285.538731871
 31
0.0
  0
LINE
  5
4B9
100
AcDbEntity
  8
1
  6
SOLID
 62
        7
100
AcDbLine
 10
-693.854901154
 20
255.538731871
 30
0.0
 11
-693.854901154
 21
282.538731871
 31
0.0
  0
LINE
  5
4BA
100
AcDbEntity
  8
1
  6
SOLID
 62
        7
100
AcDbLine
 10
-699.854901154
 20
251.038731871
 30
0.0
 11
-699.854901154
 21
283.038731871
 31
0.0
  0
LINE
  5
4BB
100
AcDbEntity
  8
1
  6
SOLID
 62
        7
100
AcDbLine
 10
-699.854901154
 20
251.038731871
 30
0.0
 11
-714.854901154
 21
251.038731871
 31
0.0
  0
LINE
  5
4BC
100
AcDbEntity
  8
1
  6
SOLID
 62
        7
100
AcDbLine
 10
-714.854901154
 20
251.038731871
 30
0.0
 11
-714.854901154
 21
282.038731871
 31
0.0
  0
LINE
  5
4BD
100
AcDbEntity
  8
1
  6
SOLID
 62
        7
100
AcDbLine
 10
-717.854901154
 20
251.038731871
 30
0.0
 11
-723.854901154
 21
251.038731871
 31
0.0
  0
LINE
  5
4BE
100
AcDbEntity
  8
1
  6
SOLID
 62
        7
100
AcDbLine
 10
-717.854901154
 20
251.038731871
 30
0.0
 11
-717.854901154
 21
284.038731871
 31
0.0
  0
LINE
  5
4BF
100
AcDbEntity
  8
1
  6
SOLID
 62
        7
100
AcDbLine
 10
-718.854901154
 20
322.038731871
 30
0.0
 11
-723.854901154
 21
322.038731871
 31
0.0
  0
LINE
  5
4C0
100
AcDbEntity
  8
1
  6
CENTER
 62
        7
100
AcDbLine
 10
-715.854901154
 20
322.038731871
 30
0.0
 11
-718.854901154
 21
322.038731871
 31
0.0
  0
LINE
  5
4C1
100
AcDbEntity
  8
1
  6
SOLID
 62
        7
100
AcDbLine
 10
-702.854901154
 20
322.038731871
 30
0.0
 11
-715.854901154
 21
322.038731871
 31
0.0
  0
LINE
  5
4C2
100
AcDbEntity
  8
1
  6
CENTER
 62
        7
100
AcDbLine
 10
-694.634323962
 20
322.038731871
 30
0.0
 11
-702.854901154
 21
322.038731871
 31
0.0
  0
ARC
  5
4C3
100
AcDbEntity
  8
1
  6
SOLID
 62
        7
100
AcDbCircle
 10
-699.854901154
 20
314.038731871
 30
0.0
 40
3.0
100
AcDbArc
 50
270.0
 51
0.0
  0
ARC
  5
4C4
100
AcDbEntity
  8
1
  6
SOLID
 62
        7
100
AcDbCircle
 10
-699.854901154
 20
330.038731871
 30
0.0
 40
3.0
100
AcDbArc
 50
0.0
 51
90.0
  0
LINE
  5
4C5
100
AcDbEntity
  8
1
  6
SOLID
 62
        7
100
AcDbLine
 10
-696.854901154
 20
314.038731871
 30
0.0
 11
-696.854901154
 21
330.038731871
 31
0.0
  0
LINE
  5
4C6
100
AcDbEntity
  8
1
  6
SOLID
 62
        7
100
AcDbLine
 10
-699.854901154
 20
311.038731871
 30
0.0
 11
-702.854901154
 21
311.038731871
 31
0.0
  0
LINE
  5
4C7
100
AcDbEntity
  8
1
  6
SOLID
 62
        7
100
AcDbLine
 10
-699.854901154
 20
333.038731871
 30
0.0
 11
-702.854901154
 21
333.038731871
 31
0.0
  0
LINE
  5
4C8
100
AcDbEntity
  8
1
  6
SOLID
 62
        7
100
AcDbLine
 10
-702.854901154
 20
310.038731871
 30
0.0
 11
-715.854901154
 21
310.038731871
 31
0.0
  0
LINE
  5
4C9
100
AcDbEntity
  8
1
  6
SOLID
 62
        7
100
AcDbLine
 10
-702.854901154
 20
334.038731871
 30
0.0
 11
-715.854901154
 21
334.038731871
 31
0.0
  0
LINE
  5
4CA
100
AcDbEntity
  8
1
  6
SOLID
 62
        7
100
AcDbLine
 10
-702.854901154
 20
310.038731871
 30
0.0
 11
-702.854901154
 21
334.038731871
 31
0.0
  0
LINE
  5
4CB
100
AcDbEntity
  8
1
  6
SOLID
 62
        7
100
AcDbLine
 10
-715.854901154
 20
310.038731871
 30
0.0
 11
-715.854901154
 21
334.038731871
 31
0.0
  0
LINE
  5
4CC
100
AcDbEntity
  8
1
  6
SOLID
 62
        7
100
AcDbLine
 10
-715.854901154
 20
312.038731871
 30
0.0
 11
-718.854901154
 21
312.038731871
 31
0.0
  0
LINE
  5
4CD
100
AcDbEntity
  8
1
  6
SOLID
 62
        7
100
AcDbLine
 10
-715.854901154
 20
332.038731871
 30
0.0
 11
-718.854901154
 21
332.038731871
 31
0.0
  0
LINE
  5
4CE
100
AcDbEntity
  8
1
  6
SOLID
 62
        7
100
AcDbLine
 10
-718.854901154
 20
310.038731871
 30
0.0
 11
-723.854901154
 21
310.038731871
 31
0.0
  0
LINE
  5
4CF
100
AcDbEntity
  8
1
  6
SOLID
 62
        7
100
AcDbLine
 10
-718.854901154
 20
334.038731871
 30
0.0
 11
-723.854901154
 21
334.038731871
 31
0.0
  0
LINE
  5
4D0
100
AcDbEntity
  8
1
  6
SOLID
 62
        7
100
AcDbLine
 10
-718.854901154
 20
310.038731871
 30
0.0
 11
-718.854901154
 21
334.038731871
 31
0.0
  0
LINE
  5
4D1
100
AcDbEntity
  8
1
  6
SOLID
 62
        7
100
AcDbLine
 10
-718.854901154
 20
294.038731871
 30
0.0
 11
-723.854901154
 21
294.038731871
 31
0.0
  0
LINE
  5
4D2
100
AcDbEntity
  8
1
  6
CENTER
 62
        7
100
AcDbLine
 10
-715.854901154
 20
294.038731871
 30
0.0
 11
-718.854901154
 21
294.038731871
 31
0.0
  0
LINE
  5
4D3
100
AcDbEntity
  8
1
  6
SOLID
 62
        7
100
AcDbLine
 10
-702.854901154
 20
294.038731871
 30
0.0
 11
-715.854901154
 21
294.038731871
 31
0.0
  0
LINE
  5
4D4
100
AcDbEntity
  8
1
  6
CENTER
 62
        7
100
AcDbLine
 10
-694.634323962
 20
294.038731871
 30
0.0
 11
-702.854901154
 21
294.038731871
 31
0.0
  0
ARC
  5
4D5
100
AcDbEntity
  8
1
  6
SOLID
 62
        7
100
AcDbCircle
 10
-699.854901154
 20
286.038731871
 30
0.0
 40
3.0
100
AcDbArc
 50
270.0
 51
0.0
  0
ARC
  5
4D6
100
AcDbEntity
  8
1
  6
SOLID
 62
        7
100
AcDbCircle
 10
-699.854901154
 20
302.038731871
 30
0.0
 40
3.0
100
AcDbArc
 50
0.0
 51
90.0
  0
LINE
  5
4D7
100
AcDbEntity
  8
1
  6
SOLID
 62
        7
100
AcDbLine
 10
-696.854901154
 20
286.038731871
 30
0.0
 11
-696.854901154
 21
302.038731871
 31
0.0
  0
LINE
  5
4D8
100
AcDbEntity
  8
1
  6
SOLID
 62
        7
100
AcDbLine
 10
-699.854901154
 20
283.038731871
 30
0.0
 11
-702.854901154
 21
283.038731871
 31
0.0
  0
LINE
  5
4D9
100
AcDbEntity
  8
1
  6
SOLID
 62
        7
100
AcDbLine
 10
-699.854901154
 20
305.038731871
 30
0.0
 11
-702.854901154
 21
305.038731871
 31
0.0
  0
LINE
  5
4DA
100
AcDbEntity
  8
1
  6
SOLID
 62
        7
100
AcDbLine
 10
-702.854901154
 20
282.038731871
 30
0.0
 11
-715.854901154
 21
282.038731871
 31
0.0
  0
LINE
  5
4DB
100
AcDbEntity
  8
1
  6
SOLID
 62
        7
100
AcDbLine
 10
-702.854901154
 20
306.038731871
 30
0.0
 11
-715.854901154
 21
306.038731871
 31
0.0
  0
LINE
  5
4DC
100
AcDbEntity
  8
1
  6
SOLID
 62
        7
100
AcDbLine
 10
-702.854901154
 20
282.038731871
 30
0.0
 11
-702.854901154
 21
306.038731871
 31
0.0
  0
LINE
  5
4DD
100
AcDbEntity
  8
1
  6
SOLID
 62
        7
100
AcDbLine
 10
-715.854901154
 20
282.038731871
 30
0.0
 11
-715.854901154
 21
306.038731871
 31
0.0
  0
LINE
  5
4DE
100
AcDbEntity
  8
1
  6
SOLID
 62
        7
100
AcDbLine
 10
-715.854901154
 20
284.038731871
 30
0.0
 11
-718.854901154
 21
284.038731871
 31
0.0
  0
LINE
  5
4DF
100
AcDbEntity
  8
1
  6
SOLID
 62
        7
100
AcDbLine
 10
-715.854901154
 20
304.038731871
 30
0.0
 11
-718.854901154
 21
304.038731871
 31
0.0
  0
LINE
  5
4E0
100
AcDbEntity
  8
1
  6
SOLID
 62
        7
100
AcDbLine
 10
-718.854901154
 20
282.038731871
 30
0.0
 11
-723.854901154
 21
282.038731871
 31
0.0
  0
LINE
  5
4E1
100
AcDbEntity
  8
1
  6
SOLID
 62
        7
100
AcDbLine
 10
-718.854901154
 20
306.038731871
 30
0.0
 11
-723.854901154
 21
306.038731871
 31
0.0
  0
LINE
  5
4E2
100
AcDbEntity
  8
1
  6
SOLID
 62
        7
100
AcDbLine
 10
-718.854901154
 20
282.038731871
 30
0.0
 11
-718.854901154
 21
306.038731871
 31
0.0
  0
LINE
  5
4E3
100
AcDbEntity
  8
1
  6
SOLID
 62
        7
100
AcDbLine
 10
-718.854901154
 20
347.038731871
 30
0.0
 11
-723.854901154
 21
347.038731871
 31
0.0
  0
LINE
  5
4E4
100
AcDbEntity
  8
1
  6
CENTER
 62
        7
100
AcDbLine
 10
-715.854901154
 20
347.038731871
 30
0.0
 11
-718.854901154
 21
347.038731871
 31
0.0
  0
LINE
  5
4E5
100
AcDbEntity
  8
1
  6
SOLID
 62
        7
100
AcDbLine
 10
-702.854901154
 20
347.038731871
 30
0.0
 11
-715.854901154
 21
347.038731871
 31
0.0
  0
LINE
  5
4E6
100
AcDbEntity
  8
1
  6
CENTER
 62
        7
100
AcDbLine
 10
-694.634323962
 20
347.038731871
 30
0.0
 11
-702.854901154
 21
347.038731871
 31
0.0
  0
ARC
  5
4E7
100
AcDbEntity
  8
1
  6
SOLID
 62
        7
100
AcDbCircle
 10
-699.854901154
 20
339.038731871
 30
0.0
 40
3.0
100
AcDbArc
 50
270.0
 51
0.0
  0
LINE
  5
4E8
100
AcDbEntity
  8
1
  6
SOLID
 62
        7
100
AcDbLine
 10
-581.854857656
 20
167.038749695
 30
0.0
 11
-581.854857656
 21
187.038749695
 31
0.0
  0
LINE
  5
4E9
100
AcDbEntity
  8
1
  6
SOLID
 62
        7
100
AcDbLine
 10
-581.854857656
 20
201.038749695
 30
0.0
 11
-581.854857656
 21
304.038749695
 31
0.0
  0
LINE
  5
4EA
100
AcDbEntity
  8
1
  6
SOLID
 62
        7
100
AcDbLine
 10
-851.854902658
 20
171.668628746
 30
0.0
 11
-581.854857656
 21
171.668628746
 31
0.0
  0
LINE
  5
4EB
100
AcDbEntity
  8
1
  6
SOLID
 62
        7
100
AcDbLine
 10
-851.854902658
 20
167.038749695
 30
0.0
 11
-581.854857656
 21
167.038749695
 31
0.0
  0
LINE
  5
4EC
100
AcDbEntity
  8
1
  6
SOLID
 62
        7
100
AcDbLine
 10
-696.924141752
 20
302.679551132
 30
0.0
 11
-581.854857656
 21
302.679551132
 31
0.0
  0
LINE
  5
4ED
100
AcDbEntity
  8
1
  6
SOLID
 62
        7
100
AcDbLine
 10
-851.854902658
 20
167.038749695
 30
0.0
 11
-851.854902658
 21
187.038749695
 31
0.0
  0
LINE
  5
4EE
100
AcDbEntity
  8
1
  6
SOLID
 62
        7
100
AcDbLine
 10
-851.854902658
 20
201.038749695
 30
0.0
 11
-851.854902658
 21
229.038749695
 31
0.0
  0
LINE
  5
4EF
100
AcDbEntity
  8
1
  6
SOLID
 62
        7
100
AcDbLine
 10
-904.054842949
 20
201.038749695
 30
0.0
 11
-851.854902658
 21
201.038749695
 31
0.0
  0
LINE
  5
4F0
100
AcDbEntity
  8
1
  6
SOLID
 62
        7
100
AcDbLine
 10
-851.854902658
 20
201.038749695
 30
0.0
 11
-553.854872915
 21
201.038749695
 31
0.0
  0
LINE
  5
4F1
100
AcDbEntity
  8
1
  6
SOLID
 62
        7
100
AcDbLine
 10
-696.854901154
 20
288.679551132
 30
0.0
 11
-581.854857656
 21
288.679551132
 31
0.0
  0
LINE
  5
4F2
100
AcDbEntity
  8
1
  6
SOLID
 62
        7
100
AcDbLine
 10
-696.854901154
 20
291.397948258
 30
0.0
 11
-581.854857656
 21
291.397948258
 31
0.0
  0
LINE
  5
4F3
100
AcDbEntity
  8
1
  6
SOLID
 62
        7
100
AcDbLine
 10
-693.854901154
 20
277.397948258
 30
0.0
 11
-581.854857656
 21
277.397948258
 31
0.0
  0
LINE
  5
4F4
100
AcDbEntity
  8
1
  6
SOLID
 62
        7
100
AcDbLine
 10
-693.854901154
 20
274.679551132
 30
0.0
 11
-581.854857656
 21
274.679551132
 31
0.0
  0
LINE
  5
4F5
100
AcDbEntity
  8
1
  6
SOLID
 62
        7
100
AcDbLine
 10
-693.854901154
 20
263.397948258
 30
0.0
 11
-581.854857656
 21
263.397948258
 31
0.0
  0
LINE
  5
4F6
100
AcDbEntity
  8
1
  6
SOLID
 62
        7
100
AcDbLine
 10
-693.854901154
 20
260.679551132
 30
0.0
 11
-581.854857656
 21
260.679551132
 31
0.0
  0
LINE
  5
4F7
100
AcDbEntity
  8
1
  6
SOLID
 62
        7
100
AcDbLine
 10
-723.854901154
 20
249.397948258
 30
0.0
 11
-581.854857656
 21
249.397948258
 31
0.0
  0
LINE
  5
4F8
100
AcDbEntity
  8
1
  6
SOLID
 62
        7
100
AcDbLine
 10
-723.854901154
 20
246.679551132
 30
0.0
 11
-581.854857656
 21
246.679551132
 31
0.0
  0
LINE
  5
4F9
100
AcDbEntity
  8
1
  6
SOLID
 62
        7
100
AcDbLine
 10
-723.854901154
 20
232.679551132
 30
0.0
 11
-581.854857656
 21
232.679551132
 31
0.0
  0
LINE
  5
4FA
100
AcDbEntity
  8
1
  6
SOLID
 62
        7
100
AcDbLine
 10
-723.854901154
 20
235.397948258
 30
0.0
 11
-581.854857656
 21
235.397948258
 31
0.0
  0
LINE
  5
4FB
100
AcDbEntity
  8
1
  6
SOLID
 62
        7
100
AcDbLine
 10
-702.854901154
 20
305.397948258
 30
0.0
 11
-581.854857656
 21
305.397948258
 31
0.0
  0
ARC
  5
4FC
100
AcDbEntity
  8
1
  6
SOLID
 62
        7
100
AcDbCircle
 10
-699.854901154
 20
355.038731871
 30
0.0
 40
3.0
100
AcDbArc
 50
0.0
 51
90.0
  0
LINE
  5
4FD
100
AcDbEntity
  8
1
  6
SOLID
 62
        7
100
AcDbLine
 10
-696.854901154
 20
339.038731871
 30
0.0
 11
-696.854901154
 21
355.038731871
 31
0.0
  0
LINE
  5
4FE
100
AcDbEntity
  8
1
  6
SOLID
 62
        7
100
AcDbLine
 10
-699.854901154
 20
336.038731871
 30
0.0
 11
-702.854901154
 21
336.038731871
 31
0.0
  0
LINE
  5
4FF
100
AcDbEntity
  8
1
  6
SOLID
 62
        7
100
AcDbLine
 10
-699.854901154
 20
358.038731871
 30
0.0
 11
-702.854901154
 21
358.038731871
 31
0.0
  0
LINE
  5
500
100
AcDbEntity
  8
1
  6
SOLID
 62
        7
100
AcDbLine
 10
-702.854901154
 20
335.038731871
 30
0.0
 11
-715.854901154
 21
335.038731871
 31
0.0
  0
LINE
  5
501
100
AcDbEntity
  8
1
  6
SOLID
 62
        7
100
AcDbLine
 10
-702.854901154
 20
359.038731871
 30
0.0
 11
-715.854901154
 21
359.038731871
 31
0.0
  0
LINE
  5
502
100
AcDbEntity
  8
1
  6
SOLID
 62
        7
100
AcDbLine
 10
-702.854901154
 20
335.038731871
 30
0.0
 11
-702.854901154
 21
359.038731871
 31
0.0
  0
LINE
  5
503
100
AcDbEntity
  8
1
  6
SOLID
 62
        7
100
AcDbLine
 10
-715.854901154
 20
335.038731871
 30
0.0
 11
-715.854901154
 21
359.038731871
 31
0.0
  0
LINE
  5
504
100
AcDbEntity
  8
1
  6
SOLID
 62
        7
100
AcDbLine
 10
-715.854901154
 20
337.038731871
 30
0.0
 11
-718.854901154
 21
337.038731871
 31
0.0
  0
LINE
  5
505
100
AcDbEntity
  8
1
  6
SOLID
 62
        7
100
AcDbLine
 10
-715.854901154
 20
357.038731871
 30
0.0
 11
-718.854901154
 21
357.038731871
 31
0.0
  0
LINE
  5
506
100
AcDbEntity
  8
1
  6
SOLID
 62
        7
100
AcDbLine
 10
-718.854901154
 20
335.038731871
 30
0.0
 11
-723.854901154
 21
335.038731871
 31
0.0
  0
LINE
  5
507
100
AcDbEntity
  8
1
  6
CENTER
 62
        7
100
AcDbLine
 10
-832.354901154
 20
243.296378737
 30
0.0
 11
-832.354901154
 21
222.442036188
 31
0.0
  0
LINE
  5
508
100
AcDbEntity
  8
1
  6
CENTER
 62
        7
100
AcDbLine
 10
-824.303835847
 20
234.038749695
 30
0.0
 11
-839.521869599
 21
234.038749695
 31
0.0
  0
LINE
  5
509
100
AcDbEntity
  8
1
  6
CENTER
 62
        7
100
AcDbLine
 10
-832.354901154
 20
361.377048036
 30
0.0
 11
-832.354901154
 21
384.463550293
 31
0.0
  0
LINE
  5
50A
100
AcDbEntity
  8
1
  6
CENTER
 62
        7
100
AcDbLine
 10
-823.176574088
 20
374.038749695
 30
0.0
 11
-838.39460784
 21
374.038749695
 31
0.0
  0
LINE
  5
50B
100
AcDbEntity
  8
1
  6
SOLID
 62
        7
100
AcDbLine
 10
-723.854901154
 20
304.038749695
 30
0.0
 11
-723.854901154
 21
379.038749695
 31
0.0
  0
LINE
  5
50C
100
AcDbEntity
  8
1
  6
SOLID
 62
        7
100
AcDbLine
 10
-852.354901154
 20
379.038749695
 30
0.0
 11
-723.854901154
 21
379.038749695
 31
0.0
  0
LINE
  5
50D
100
AcDbEntity
  8
1
  6
SOLID
 62
        7
100
AcDbLine
 10
-852.354901154
 20
379.038749695
 30
0.0
 11
-920.354901154
 21
379.038749695
 31
0.0
  0
LINE
  5
50E
100
AcDbEntity
  8
1
  6
SOLID
 62
        7
100
AcDbLine
 10
-734.854901154
 20
368.038741771
 30
0.0
 11
-923.854901154
 21
368.038741771
 31
0.0
  0
LINE
  5
50F
100
AcDbEntity
  8
1
  6
SOLID
 62
        7
100
AcDbLine
 10
-922.354901154
 20
368.038741771
 30
0.0
 11
-922.354901154
 21
377.038749695
 31
0.0
  0
LINE
  5
510
100
AcDbEntity
  8
1
  6
SOLID
 62
        7
100
AcDbLine
 10
-923.854901154
 20
304.038749695
 30
0.0
 11
-923.854901154
 21
368.038741771
 31
0.0
  0
LINE
  5
511
100
AcDbEntity
  8
1
  6
SOLID
 62
        7
100
AcDbLine
 10
-920.354901154
 20
379.038749695
 30
0.0
 11
-922.354901154
 21
377.038749695
 31
0.0
  0
LINE
  5
512
100
AcDbEntity
  8
1
  6
SOLID
 62
        7
100
AcDbLine
 10
-718.854901154
 20
359.038731871
 30
0.0
 11
-723.854901154
 21
359.038731871
 31
0.0
  0
LINE
  5
513
100
AcDbEntity
  8
1
  6
SOLID
 62
        7
100
AcDbLine
 10
-734.854901154
 20
366.538741771
 30
0.0
 11
-725.854901154
 21
366.538741771
 31
0.0
  0
LINE
  5
514
100
AcDbEntity
  8
1
  6
SOLID
 62
        7
100
AcDbLine
 10
-852.354901154
 20
229.038749695
 30
0.0
 11
-723.854901154
 21
229.038749695
 31
0.0
  0
LINE
  5
515
100
AcDbEntity
  8
1
  6
SOLID
 62
        7
100
AcDbLine
 10
-734.854901154
 20
241.538757619
 30
0.0
 11
-734.854901154
 21
231.038749695
 31
0.0
  0
LINE
  5
516
100
AcDbEntity
  8
1
  6
SOLID
 62
        7
100
AcDbLine
 10
-734.854901154
 20
231.038749695
 30
0.0
 11
-736.854901154
 21
229.038749695
 31
0.0
  0
LINE
  5
517
100
AcDbEntity
  8
1
  6
SOLID
 62
        7
100
AcDbLine
 10
-734.854901154
 20
241.538757619
 30
0.0
 11
-725.854901154
 21
241.538757619
 31
0.0
  0
LINE
  5
518
100
AcDbEntity
  8
1
  6
SOLID
 62
        7
100
AcDbLine
 10
-723.854901154
 20
304.038749695
 30
0.0
 11
-723.854901154
 21
229.038749695
 31
0.0
  0
LINE
  5
519
100
AcDbEntity
  8
1
  6
SOLID
 62
        7
100
AcDbLine
 10
-723.854901154
 20
243.538757619
 30
0.0
 11
-725.854901154
 21
241.538757619
 31
0.0
  0
LINE
  5
51A
100
AcDbEntity
  8
1
  6
SOLID
 62
        7
100
AcDbLine
 10
-734.854901154
 20
240.038757619
 30
0.0
 11
-923.854901154
 21
240.038757619
 31
0.0
  0
ARC
  5
51B
100
AcDbEntity
  8
1
  6
SOLID
 62
        7
100
AcDbCircle
 10
-1031.755194893
 20
356.038806941
 30
0.0
 40
3.0
100
AcDbArc
 50
60.0
 51
90.0
  0
LINE
  5
51C
100
AcDbEntity
  8
1
  6
SOLID
 62
        7
100
AcDbLine
 10
-1000.255146827
 20
304.038749695
 30
0.0
 11
-1000.255146827
 21
339.538806941
 31
0.0
  0
LINE
  5
51D
100
AcDbEntity
  8
1
  6
SOLID
 62
        7
100
AcDbLine
 10
-923.854901154
 20
325.614947874
 30
0.0
 11
-923.854901154
 21
282.462551516
 31
0.0
  0
ARC
  5
51E
100
AcDbEntity
  8
1
  6
SOLID
 62
        7
100
AcDbCircle
 10
-961.854901154
 20
304.038749695
 30
0.0
 40
30.0
100
AcDbArc
 50
76.231848953
 51
283.768151047
  0
LINE
  5
51F
100
AcDbEntity
  8
1
  6
CENTER
 62
        7
100
AcDbLine
 10
-728.854901154
 20
295.046354859
 30
0.0
 11
-728.854901154
 21
314.530812849
 31
0.0
  0
LINE
  5
520
100
AcDbEntity
  8
1
  6
SOLID
 62
        7
100
AcDbLine
 10
-938.854901154
 20
328.739910209
 30
0.0
 11
-954.715093237
 21
333.176751392
 31
0.0
  0
LINE
  5
521
100
AcDbEntity
  8
1
  6
SOLID
 62
        7
100
AcDbLine
 10
-938.854901154
 20
279.337589181
 30
0.0
 11
-954.715093237
 21
274.900747998
 31
0.0
  0
LINE
  5
522
100
AcDbEntity
  8
1
  6
SOLID
 62
        7
100
AcDbLine
 10
-852.354901154
 20
229.038749695
 30
0.0
 11
-920.354901154
 21
229.038749695
 31
0.0
  0
LINE
  5
523
100
AcDbEntity
  8
1
  6
SOLID
 62
        7
100
AcDbLine
 10
-551.354858398
 20
307.791526556
 30
0.0
 11
-557.854858562
 21
311.544303468
 31
0.0
  0
LINE
  5
524
100
AcDbEntity
  8
1
  6
CENTER
 62
        7
100
AcDbLine
 10
-557.854857656
 20
291.859164788
 30
0.0
 11
-557.854857656
 21
314.568963548
 31
0.0
  0
LINE
  5
525
100
AcDbEntity
  8
1
  6
SOLID
 62
        7
100
AcDbLine
 10
-557.854858398
 20
311.544303417
 30
0.0
 11
-564.354858562
 21
307.791526505
 31
0.0
  0
LINE
  5
526
100
AcDbEntity
  8
1
  6
SOLID
 62
        7
100
AcDbLine
 10
-547.097498343
 20
441.03872456
 30
0.0
 11
-568.854857656
 21
441.03872456
 31
0.0
  0
LINE
  5
527
100
AcDbEntity
  8
1
  6
SOLID
 62
        7
100
AcDbLine
 10
-564.354858398
 20
307.791526556
 30
0.0
 11
-564.354858398
 21
300.285972834
 31
0.0
  0
LINE
  5
528
100
AcDbEntity
  8
1
  6
SOLID
 62
        7
100
AcDbLine
 10
-564.354858398
 20
300.285972834
 30
0.0
 11
-557.854858235
 21
296.533195922
 31
0.0
  0
LINE
  5
529
100
AcDbEntity
  8
1
  6
SOLID
 62
        7
100
AcDbLine
 10
-518.854872915
 20
407.038749695
 30
0.0
 11
-517.854872915
 21
408.038749695
 31
0.0
  0
LINE
  5
52A
100
AcDbEntity
  8
1
  6
SOLID
 62
        7
100
AcDbLine
 10
-518.854872915
 20
421.038749695
 30
0.0
 11
-517.854872915
 21
420.038749695
 31
0.0
  0
LINE
  5
52B
100
AcDbEntity
  8
1
  6
SOLID
 62
        7
100
AcDbLine
 10
-517.854872915
 20
408.038749695
 30
0.0
 11
-517.854872915
 21
420.038749695
 31
0.0
  0
LINE
  5
52C
100
AcDbEntity
  8
1
  6
SOLID
 62
        7
100
AcDbLine
 10
-522.854872915
 20
408.238749743
 30
0.0
 11
-517.854872915
 21
408.238749743
 31
0.0
  0
LINE
  5
52D
100
AcDbEntity
  8
1
  6
SOLID
 62
        7
100
AcDbLine
 10
-522.854872915
 20
419.838749647
 30
0.0
 11
-517.854872915
 21
419.838749647
 31
0.0
  0
LINE
  5
52E
100
AcDbEntity
  8
1
  6
SOLID
 62
        7
100
AcDbLine
 10
-518.854872915
 20
407.038749695
 30
0.0
 11
-518.854872915
 21
421.038749695
 31
0.0
  0
ARC
  5
52F
100
AcDbEntity
  8
1
  6
SOLID
 62
        7
100
AcDbCircle
 10
-524.854872915
 20
405.538749695
 30
0.0
 40
2.0
100
AcDbArc
 50
270.0
 51
0.0
  0
LINE
  5
530
100
AcDbEntity
  8
1
  6
SOLID
 62
        7
100
AcDbLine
 10
-557.854858398
 20
296.533195972
 30
0.0
 11
-551.354858235
 21
300.285972884
 31
0.0
  0
ARC
  5
531
100
AcDbEntity
  8
1
  6
SOLID
 62
        7
100
AcDbCircle
 10
-524.854872915
 20
422.538749695
 30
0.0
 40
2.0
100
AcDbArc
 50
0.0
 51
90.0
  0
LINE
  5
532
100
AcDbEntity
  8
1
  6
SOLID
 62
        7
100
AcDbLine
 10
-526.242503341
 20
403.538749695
 30
0.0
 11
-524.854872915
 21
403.538749695
 31
0.0
  0
LINE
  5
533
100
AcDbEntity
  8
1
  6
SOLID
 62
        7
100
AcDbLine
 10
-526.242503341
 20
424.538749695
 30
0.0
 11
-524.854872915
 21
424.538749695
 31
0.0
  0
LINE
  5
534
100
AcDbEntity
  8
1
  6
SOLID
 62
        7
100
AcDbLine
 10
-522.854872915
 20
405.538749695
 30
0.0
 11
-522.854872915
 21
422.538749695
 31
0.0
  0
LINE
  5
535
100
AcDbEntity
  8
1
  6
SOLID
 62
        7
100
AcDbLine
 10
-522.854872915
 20
407.038749695
 30
0.0
 11
-518.854872915
 21
407.038749695
 31
0.0
  0
LINE
  5
536
100
AcDbEntity
  8
1
  6
SOLID
 62
        7
100
AcDbLine
 10
-522.854872915
 20
421.038749695
 30
0.0
 11
-518.854872915
 21
421.038749695
 31
0.0
  0
LINE
  5
537
100
AcDbEntity
  8
1
  6
SOLID
 62
        7
100
AcDbLine
 10
-551.354858398
 20
300.285972834
 30
0.0
 11
-551.354858398
 21
307.791526556
 31
0.0
  0
CIRCLE
  5
538
100
AcDbEntity
  8
1
  6
SOLID
 62
        7
100
AcDbCircle
 10
-557.854858398
 20
304.038749695
 30
0.0
 40
6.5
  0
LINE
  5
539
100
AcDbEntity
  8
1
  6
SOLID
 62
        7
100
AcDbLine
 10
-922.354901154
 20
240.038757619
 30
0.0
 11
-922.354901154
 21
231.038749695
 31
0.0
  0
LINE
  5
53A
100
AcDbEntity
  8
1
  6
SOLID
 62
        7
100
AcDbLine
 10
-518.854872915
 20
201.038749695
 30
0.0
 11
-517.854872915
 21
200.038749695
 31
0.0
  0
LINE
  5
53B
100
AcDbEntity
  8
1
  6
SOLID
 62
        7
100
AcDbLine
 10
-923.854901154
 20
304.038749695
 30
0.0
 11
-923.854901154
 21
240.038757619
 31
0.0
  0
LINE
  5
53C
100
AcDbEntity
  8
1
  6
SOLID
 62
        7
100
AcDbLine
 10
-518.854872915
 20
187.038749695
 30
0.0
 11
-517.854872915
 21
188.038749695
 31
0.0
  0
LINE
  5
53D
100
AcDbEntity
  8
1
  6
SOLID
 62
        7
100
AcDbLine
 10
-517.854872915
 20
200.038749695
 30
0.0
 11
-517.854872915
 21
188.038749695
 31
0.0
  0
LINE
  5
53E
100
AcDbEntity
  8
1
  6
SOLID
 62
        7
100
AcDbLine
 10
-920.354901154
 20
229.038749695
 30
0.0
 11
-922.354901154
 21
231.038749695
 31
0.0
  0
LINE
  5
53F
100
AcDbEntity
  8
1
  6
SOLID
 62
        7
100
AcDbLine
 10
-522.854872915
 20
199.838749647
 30
0.0
 11
-517.854872915
 21
199.838749647
 31
0.0
  0
LINE
  5
540
100
AcDbEntity
  8
1
  6
SOLID
 62
        7
100
AcDbLine
 10
-904.054842949
 20
407.038749695
 30
0.0
 11
-851.854902658
 21
407.038749695
 31
0.0
  0
LINE
  5
541
100
AcDbEntity
  8
1
  6
SOLID
 62
        7
100
AcDbLine
 10
-851.854902658
 20
221.397948258
 30
0.0
 11
-581.854857656
 21
221.397948258
 31
0.0
  0
LINE
  5
542
100
AcDbEntity
  8
1
  6
SOLID
 62
        7
100
AcDbLine
 10
-577.854857656
 20
441.03872456
 30
0.0
 11
-577.854857656
 21
421.038749695
 31
0.0
  0
LINE
  5
543
100
AcDbEntity
  8
1
  6
SOLID
 62
        7
100
AcDbLine
 10
-851.854902658
 20
407.038749695
 30
0.0
 11
-553.854872915
 21
407.038749695
 31
0.0
  0
LINE
  5
544
100
AcDbEntity
  8
1
  6
SOLID
 62
        7
100
AcDbLine
 10
-904.054842949
 20
421.038749695
 30
0.0
 11
-553.854872915
 21
421.038749695
 31
0.0
  0
LINE
  5
545
100
AcDbEntity
  8
1
  6
SOLID
 62
        7
100
AcDbLine
 10
-538.854872915
 20
324.139157141
 30
0.0
 11
-538.854872915
 21
439.03872456
 31
0.0
  0
ARC
  5
546
100
AcDbEntity
  8
1
  6
SOLID
 62
        7
100
AcDbCircle
 10
-540.854872915
 20
439.03872456
 30
0.0
 40
2.0
100
AcDbArc
 50
360.0
 51
90.0
  0
LINE
  5
547
100
AcDbEntity
  8
1
  6
SOLID
 62
        7
100
AcDbLine
 10
-551.854872915
 20
441.03872456
 30
0.0
 11
-540.854872915
 21
441.03872456
 31
0.0
  0
ARC
  5
548
100
AcDbEntity
  8
1
  6
SOLID
 62
        7
100
AcDbCircle
 10
-551.854872915
 20
439.03872456
 30
0.0
 40
2.0
100
AcDbArc
 50
90.0
 51
180.0
  0
LINE
  5
549
100
AcDbEntity
  8
1
  6
SOLID
 62
        7
100
AcDbLine
 10
-553.854872915
 20
320.163708851
 30
0.0
 11
-553.854872915
 21
439.03872456
 31
0.0
  0
LINE
  5
54A
100
AcDbEntity
  8
1
  6
CENTER
 62
        7
100
AcDbLine
 10
-576.41760903
 20
414.038749695
 30
0.0
 11
-510.758513427
 21
414.038749695
 31
0.0
  0
LINE
  5
54B
100
AcDbEntity
  8
1
  6
SOLID
 62
        7
100
AcDbLine
 10
-522.854872915
 20
188.238749743
 30
0.0
 11
-517.854872915
 21
188.238749743
 31
0.0
  0
LINE
  5
54C
100
AcDbEntity
  8
1
  6
SOLID
 62
        7
100
AcDbLine
 10
-923.854901154
 20
325.614947874
 30
0.0
 11
-938.854901154
 21
328.739910209
 31
0.0
  0
LINE
  5
54D
100
AcDbEntity
  8
1
  6
SOLID
 62
        7
100
AcDbLine
 10
-923.854901154
 20
282.462551516
 30
0.0
 11
-938.854901154
 21
279.337589181
 31
0.0
  0
LINE
  5
54E
100
AcDbEntity
  8
1
  6
SOLID
 62
        7
100
AcDbLine
 10
-518.854872915
 20
201.038749695
 30
0.0
 11
-518.854872915
 21
187.038749695
 31
0.0
  0
LINE
  5
54F
100
AcDbEntity
  8
1
  6
SOLID
 62
        7
100
AcDbLine
 10
-851.854878058
 20
172.038719177
 30
0.0
 11
-855.854857656
 21
172.038719177
 31
0.0
  0
LINE
  5
550
100
AcDbEntity
  8
1
  6
SOLID
 62
        7
100
AcDbLine
 10
-1030.255194893
 20
358.636883152
 30
0.0
 11
-1030.255194893
 21
340.538806941
 31
0.0
  0
LINE
  5
551
100
AcDbEntity
  8
1
  6
SOLID
 62
        7
100
AcDbLine
 10
-577.854857656
 20
407.038749695
 30
0.0
 11
-577.854857656
 21
304.038749695
 31
0.0
  0
LINE
  5
552
100
AcDbEntity
  8
1
  6
SOLID
 62
        7
100
AcDbLine
 10
-581.854882257
 20
172.038719177
 30
0.0
 11
-577.854882257
 21
172.038719177
 31
0.0
  0
LINE
  5
553
100
AcDbEntity
  8
1
  6
SOLID
 62
        7
100
AcDbLine
 10
-696.854901154
 20
319.397948258
 30
0.0
 11
-581.854857656
 21
319.397948258
 31
0.0
  0
LINE
  5
554
100
AcDbEntity
  8
1
  6
SOLID
 62
        7
100
AcDbLine
 10
-851.854902658
 20
407.038749695
 30
0.0
 11
-851.854902658
 21
379.038749695
 31
0.0
  0
ARC
  5
555
100
AcDbEntity
  8
1
  6
SOLID
 62
        7
100
AcDbCircle
 10
-524.854872915
 20
202.538749695
 30
0.0
 40
2.0
100
AcDbArc
 50
0.0
 51
90.0
  0
LINE
  5
556
100
AcDbEntity
  8
1
  6
SOLID
 62
        7
100
AcDbLine
 10
-581.854857656
 20
407.038749695
 30
0.0
 11
-581.854857656
 21
304.038749695
 31
0.0
  0
LINE
  5
557
100
AcDbEntity
  8
1
  6
SOLID
 62
        7
100
AcDbLine
 10
-498.854872915
 20
409.038721869
 30
0.0
 11
-499.854872915
 21
409.038721869
 31
0.0
  0
LINE
  5
558
100
AcDbEntity
  8
1
  6
SOLID
 62
        7
100
AcDbLine
 10
-577.854883002
 20
168.038746667
 30
0.0
 11
-577.854882257
 21
172.038746667
 31
0.0
  0
LINE
  5
559
100
AcDbEntity
  8
1
  6
SOLID
 62
        7
100
AcDbLine
 10
-1001.255146827
 20
340.538806941
 30
0.0
 11
-1030.255194893
 21
340.538806941
 31
0.0
  0
LINE
  5
55A
100
AcDbEntity
  8
1
  6
SOLID
 62
        7
100
AcDbLine
 10
-577.854857656
 20
441.03872456
 30
0.0
 11
-505.854872915
 21
441.03872456
 31
0.0
  0
LINE
  5
55B
100
AcDbEntity
  8
1
  6
SOLID
 62
        7
100
AcDbLine
 10
-497.854872915
 20
385.038749695
 30
0.0
 11
-497.854872915
 21
394.038749695
 31
0.0
  0
ARC
  5
55C
100
AcDbEntity
  8
1
  6
SOLID
 62
        7
100
AcDbCircle
 10
-498.854872915
 20
408.038721869
 30
0.0
 40
1.0
100
AcDbArc
 50
0.0
 51
90.0
  0
LINE
  5
55D
100
AcDbEntity
  8
1
  6
SOLID
 62
        7
100
AcDbLine
 10
-503.854872915
 20
439.03872456
 30
0.0
 11
-503.854872915
 21
304.038749695
 31
0.0
  0
LINE
  5
55E
100
AcDbEntity
  8
1
  6
SOLID
 62
        7
100
AcDbLine
 10
-498.854872915
 20
199.038721869
 30
0.0
 11
-503.854872915
 21
199.038721869
 31
0.0
  0
LINE
  5
55F
100
AcDbEntity
  8
1
  6
SOLID
 62
        7
100
AcDbLine
 10
-497.854872915
 20
223.038749695
 30
0.0
 11
-497.854872915
 21
200.038721869
 31
0.0
  0
ARC
  5
560
100
AcDbEntity
  8
1
  6
SOLID
 62
        7
100
AcDbCircle
 10
-498.854872915
 20
200.038721869
 30
0.0
 40
1.0
100
AcDbArc
 50
270.0
 51
0.0
  0
LINE
  5
561
100
AcDbEntity
  8
1
  6
SOLID
 62
        7
100
AcDbLine
 10
-734.854901154
 20
377.038749695
 30
0.0
 11
-736.854901154
 21
379.038749695
 31
0.0
  0
ARC
  5
562
100
AcDbEntity
  8
1
  6
SOLID
 62
        7
100
AcDbCircle
 10
-961.854901154
 20
304.038749695
 30
0.0
 40
15.0
100
AcDbArc
 50
270.0
 51
90.0
  0
ARC
  5
563
100
AcDbEntity
  8
1
  6
SOLID
 62
        7
100
AcDbCircle
 10
-961.854901154
 20
304.038749695
 30
0.0
 40
15.0
100
AcDbArc
 50
90.0
 51
270.0
  0
ARC
  5
564
100
AcDbEntity
  8
1
  6
SOLID
 62
        7
100
AcDbCircle
 10
-524.854872915
 20
185.538749695
 30
0.0
 40
2.0
100
AcDbArc
 50
270.0
 51
0.0
  0
LINE
  5
565
100
AcDbEntity
  8
1
  6
SOLID
 62
        7
100
AcDbLine
 10
-526.242503341
 20
204.538749695
 30
0.0
 11
-524.854872915
 21
204.538749695
 31
0.0
  0
ARC
  5
566
100
AcDbEntity
  8
1
  6
SOLID
 62
        7
100
AcDbCircle
 10
-505.854872915
 20
439.03872456
 30
0.0
 40
2.0
100
AcDbArc
 50
0.0
 51
90.0
  0
LINE
  5
567
100
AcDbEntity
  8
1
  6
SOLID
 62
        7
100
AcDbLine
 10
-490.854564708
 20
394.038749695
 30
0.0
 11
-490.854564708
 21
304.038749695
 31
0.0
  0
LINE
  5
568
100
AcDbEntity
  8
1
  6
SOLID
 62
        7
100
AcDbLine
 10
-851.854902658
 20
436.038661135
 30
0.0
 11
-855.854857656
 21
436.038661135
 31
0.0
  0
LINE
  5
569
100
AcDbEntity
  8
1
  6
SOLID
 62
        7
100
AcDbLine
 10
-916.855025512
 20
164.038749695
 30
0.0
 11
-872.064325588
 21
187.038749695
 31
0.0
  0
LINE
  5
56A
100
AcDbEntity
  8
1
  6
SOLID
 62
        7
100
AcDbLine
 10
-526.242503341
 20
183.538749695
 30
0.0
 11
-524.854872915
 21
183.538749695
 31
0.0
  0
LINE
  5
56B
100
AcDbEntity
  8
1
  6
SOLID
 62
        7
100
AcDbLine
 10
-718.854901154
 20
335.038731871
 30
0.0
 11
-718.854901154
 21
359.038731871
 31
0.0
  0
LINE
  5
56C
100
AcDbEntity
  8
1
  6
SOLID
 62
        7
100
AcDbLine
 10
-855.855025512
 20
421.038749695
 30
0.0
 11
-855.855025512
 21
441.038749695
 31
0.0
  0
LINE
  5
56D
100
AcDbEntity
  8
1
  6
SOLID
 62
        7
100
AcDbLine
 10
-1001.255146827
 20
340.538806941
 30
0.0
 11
-1000.255146827
 21
339.538806941
 31
0.0
  0
LINE
  5
56E
100
AcDbEntity
  8
1
  6
SOLID
 62
        7
100
AcDbLine
 10
-723.854901154
 20
364.538741771
 30
0.0
 11
-725.854901154
 21
366.538741771
 31
0.0
  0
LINE
  5
56F
100
AcDbEntity
  8
1
  6
SOLID
 62
        7
100
AcDbLine
 10
-568.854857656
 20
291.038749695
 30
0.0
 11
-568.854857656
 21
317.038749695
 31
0.0
  0
LINE
  5
570
100
AcDbEntity
  8
1
  6
SOLID
 62
        7
100
AcDbLine
 10
-1030.255194893
 20
341.538749695
 30
0.0
 11
-983.854903853
 21
341.538749695
 31
0.0
  0
LINE
  5
571
100
AcDbEntity
  8
1
  6
SOLID
 62
        7
100
AcDbLine
 10
-855.855025512
 20
441.038749695
 30
0.0
 11
-913.976675768
 21
442.56071867
 31
0.0
  0
LINE
  5
572
100
AcDbEntity
  8
1
  6
SOLID
 62
        7
100
AcDbLine
 10
-1058.255291324
 20
358.63682067
 30
0.0
 11
-1058.255100743
 21
304.038749695
 31
0.0
  0
ARC
  5
573
100
AcDbEntity
  8
1
  6
SOLID
 62
        7
100
AcDbCircle
 10
-1059.526167677
 20
354.349318732
 30
0.0
 40
2.249123365
100
AcDbArc
 50
145.615740999
 51
214.384259001
  0
LINE
  5
574
100
AcDbEntity
  8
1
  6
SOLID
 62
        7
100
AcDbLine
 10
-696.854901154
 20
316.679551132
 30
0.0
 11
-581.854857656
 21
316.679551132
 31
0.0
  0
LINE
  5
575
100
AcDbEntity
  8
1
  6
SOLID
 62
        7
100
AcDbLine
 10
-545.928015567
 20
286.262381829
 30
0.0
 11
-535.854857656
 21
282.952619983
 31
0.0
  0
LINE
  5
576
100
AcDbEntity
  8
1
  6
SOLID
 62
        7
100
AcDbLine
 10
-1061.382298752
 20
353.079148135
 30
0.0
 11
-1058.475290921
 21
353.079148135
 31
0.0
  0
LINE
  5
577
100
AcDbEntity
  8
1
  6
CENTER
 62
        7
100
AcDbLine
 10
-1023.736237721
 20
350.538806941
 30
0.0
 11
-1066.775291042
 21
350.538806941
 31
0.0
  0
ARC
  5
578
100
AcDbEntity
  8
1
  6
SOLID
 62
        7
100
AcDbCircle
 10
-1053.368286016
 20
350.538806941
 30
0.0
 40
8.407005026
100
AcDbArc
 50
162.412040055
 51
197.587959945
  0
LINE
  5
579
100
AcDbEntity
  8
1
  6
CENTER
 62
        7
100
AcDbLine
 10
-961.854901154
 20
333.870260654
 30
0.0
 11
-961.854901154
 21
276.243226916
 31
0.0
  0
LINE
  5
57A
100
AcDbEntity
  8
1
  6
SOLID
 62
        7
100
AcDbLine
 10
-497.520555019
 20
391.038749695
 30
0.0
 11
-497.520555019
 21
394.038749695
 31
0.0
  0
LINE
  5
57B
100
AcDbEntity
  8
1
  6
SOLID
 62
        7
100
AcDbLine
 10
-497.854872915
 20
391.038749695
 30
0.0
 11
-497.520555019
 21
391.038749695
 31
0.0
  0
LINE
  5
57C
100
AcDbEntity
  8
1
  6
SOLID
 62
        7
100
AcDbLine
 10
-370.854564708
 20
182.038754991
 30
0.0
 11
-490.854564708
 21
182.038754991
 31
0.0
  0
LINE
  5
57D
100
AcDbEntity
  8
1
  6
SOLID
 62
        7
100
AcDbLine
 10
-370.854564708
 20
426.038754991
 30
0.0
 11
-490.854564708
 21
426.038754991
 31
0.0
  0
LINE
  5
57E
100
AcDbEntity
  8
1
  6
SOLID
 62
        7
100
AcDbLine
 10
-490.854564708
 20
223.038749695
 30
0.0
 11
-490.854564708
 21
182.038754991
 31
0.0
  0
LINE
  5
57F
100
AcDbEntity
  8
1
  6
SOLID
 62
        7
100
AcDbLine
 10
-370.854564708
 20
223.038749695
 30
0.0
 11
-370.854564708
 21
182.038754991
 31
0.0
  0
ARC
  5
580
100
AcDbEntity
  8
1
  6
SOLID
 62
        7
100
AcDbCircle
 10
-1059.526167677
 20
346.72829515
 30
0.0
 40
2.249123365
100
AcDbArc
 50
145.615740999
 51
214.384259001
  0
LINE
  5
581
100
AcDbEntity
  8
1
  6
SOLID
 62
        7
100
AcDbLine
 10
-1061.775291042
 20
346.72829515
 30
0.0
 11
-1061.775291042
 21
354.349318732
 31
0.0
  0
LINE
  5
582
100
AcDbEntity
  8
1
  6
SOLID
 62
        7
100
AcDbLine
 10
-1061.382298752
 20
345.458124553
 30
0.0
 11
-1058.475290921
 21
345.458124553
 31
0.0
  0
LINE
  5
583
100
AcDbEntity
  8
1
  6
SOLID
 62
        7
100
AcDbLine
 10
-1058.475290921
 20
345.458124553
 30
0.0
 11
-1058.475290921
 21
355.619489329
 31
0.0
  0
LINE
  5
584
100
AcDbEntity
  8
1
  6
SOLID
 62
        7
100
AcDbLine
 10
-1061.382298752
 20
347.998465747
 30
0.0
 11
-1058.475290921
 21
347.998465747
 31
0.0
  0
LINE
  5
585
100
AcDbEntity
  8
1
  6
SOLID
 62
        7
100
AcDbLine
 10
-1058.475290921
 20
346.515556822
 30
0.0
 11
-1058.255290913
 21
346.515556822
 31
0.0
  0
LINE
  5
586
100
AcDbEntity
  8
1
  6
SOLID
 62
        7
100
AcDbLine
 10
-923.854901154
 20
304.038749695
 30
0.0
 11
-923.854901154
 21
461.538827414
 31
0.0
  0
LINE
  5
587
100
AcDbEntity
  8
1
  6
CENTER
 62
        7
100
AcDbLine
 10
-1030.255232349
 20
423.038878661
 30
0.0
 11
-1030.255232349
 21
436.188878757
 31
0.0
  0
LINE
  5
588
100
AcDbEntity
  8
1
  6
CENTER
 62
        7
100
AcDbLine
 10
-1030.255232349
 20
423.038878661
 30
0.0
 11
-1030.255232349
 21
371.288878661
 31
0.0
  0
LINE
  5
589
100
AcDbEntity
  8
1
  6
SOLID
 62
        7
100
AcDbLine
 10
-1035.940717706
 20
413.801267624
 30
0.0
 11
-1030.655249038
 21
413.801267624
 31
0.0
  0
LINE
  5
58A
100
AcDbEntity
  8
1
  6
SOLID
 62
        7
100
AcDbLine
 10
-1030.655249038
 20
413.801267624
 30
0.0
 11
-1030.655249038
 21
432.276475906
 31
0.0
  0
LINE
  5
58B
100
AcDbEntity
  8
1
  6
SOLID
 62
        7
100
AcDbLine
 10
-1030.655249038
 20
432.276475906
 30
0.0
 11
-1035.940717706
 21
432.276475906
 31
0.0
  0
ARC
  5
58C
100
AcDbEntity
  8
1
  6
SOLID
 62
        7
100
AcDbCircle
 10
-1032.565934006
 20
429.967074871
 30
0.0
 40
4.089315121
100
AcDbArc
 50
145.615740999
 51
214.384259001
  0
LINE
  5
58D
100
AcDbEntity
  8
1
  6
SOLID
 62
        7
100
AcDbLine
 10
-1035.940717706
 20
427.657673836
 30
0.0
 11
-1030.655249038
 21
427.657673836
 31
0.0
  0
ARC
  5
58E
100
AcDbEntity
  8
1
  6
SOLID
 62
        7
100
AcDbCircle
 10
-1021.369785775
 20
423.038871765
 30
0.0
 40
15.285463353
100
AcDbArc
 50
162.412040055
 51
197.587959945
  0
LINE
  5
58F
100
AcDbEntity
  8
1
  6
SOLID
 62
        7
100
AcDbLine
 10
-1035.940717706
 20
418.420069695
 30
0.0
 11
-1030.655249038
 21
418.420069695
 31
0.0
  0
ARC
  5
590
100
AcDbEntity
  8
1
  6
SOLID
 62
        7
100
AcDbCircle
 10
-1032.565934006
 20
416.110668659
 30
0.0
 40
4.089315121
100
AcDbArc
 50
145.615740999
 51
214.384259001
  0
LINE
  5
591
100
AcDbEntity
  8
1
  6
SOLID
 62
        7
100
AcDbLine
 10
-1036.655249128
 20
416.110668659
 30
0.0
 11
-1036.655249128
 21
429.967074871
 31
0.0
  0
LINE
  5
592
100
AcDbEntity
  8
1
  6
SOLID
 62
        7
100
AcDbLine
 10
-1030.655249038
 20
415.723871708
 30
0.0
 11
-1030.255249032
 21
415.723871708
 31
0.0
  0
LINE
  5
593
100
AcDbEntity
  8
1
  6
SOLID
 62
        7
100
AcDbLine
 10
-1030.255249032
 20
415.723871708
 30
0.0
 11
-1030.255249032
 21
430.353871822
 31
0.0
  0
LINE
  5
594
100
AcDbEntity
  8
1
  6
SOLID
 62
        7
100
AcDbLine
 10
-696.854901154
 20
330.679551132
 30
0.0
 11
-581.854857656
 21
330.679551132
 31
0.0
  0
LINE
  5
595
100
AcDbEntity
  8
1
  6
SOLID
 62
        7
100
AcDbLine
 10
-522.854872915
 20
202.538749695
 30
0.0
 11
-522.854872915
 21
185.538749695
 31
0.0
  0
LINE
  5
596
100
AcDbEntity
  8
1
  6
SOLID
 62
        7
100
AcDbLine
 10
-522.854872915
 20
201.038749695
 30
0.0
 11
-518.854872915
 21
201.038749695
 31
0.0
  0
LINE
  5
597
100
AcDbEntity
  8
1
  6
SOLID
 62
        7
100
AcDbLine
 10
-916.855025512
 20
444.038749695
 30
0.0
 11
-872.064325588
 21
421.038749695
 31
0.0
  0
LINE
  5
598
100
AcDbEntity
  8
1
  6
SOLID
 62
        7
100
AcDbLine
 10
-522.854872915
 20
187.038749695
 30
0.0
 11
-518.854872915
 21
187.038749695
 31
0.0
  0
LINE
  5
599
100
AcDbEntity
  8
1
  6
CENTER
 62
        7
100
AcDbLine
 10
-576.41760903
 20
194.038749695
 30
0.0
 11
-510.758513427
 21
194.038749695
 31
0.0
  0
LINE
  5
59A
100
AcDbEntity
  8
1
  6
SOLID
 62
        7
100
AcDbLine
 10
-535.854857656
 20
274.038749695
 30
0.0
 11
-535.854857656
 21
334.038749695
 31
0.0
  0
LINE
  5
59B
100
AcDbEntity
  8
1
  6
SOLID
 62
        7
100
AcDbLine
 10
-577.854857656
 20
167.038774829
 30
0.0
 11
-577.854857656
 21
187.038749695
 31
0.0
  0
LINE
  5
59C
100
AcDbEntity
  8
1
  6
SOLID
 62
        7
100
AcDbLine
 10
-581.854857656
 20
201.038749695
 30
0.0
 11
-553.854872915
 21
201.038749695
 31
0.0
  0
LINE
  5
59D
100
AcDbEntity
  8
1
  6
SOLID
 62
        7
100
AcDbLine
 10
-577.854857656
 20
289.038749695
 30
0.0
 11
-559.254741949
 21
289.038749695
 31
0.0
  0
LINE
  5
59E
100
AcDbEntity
  8
1
  6
SOLID
 62
        7
100
AcDbLine
 10
-577.854857656
 20
201.038749695
 30
0.0
 11
-577.854857656
 21
304.038749695
 31
0.0
  0
LINE
  5
59F
100
AcDbEntity
  8
1
  6
SOLID
 62
        7
100
AcDbLine
 10
-851.854902658
 20
218.679551132
 30
0.0
 11
-581.854857656
 21
218.679551132
 31
0.0
  0
LINE
  5
5A0
100
AcDbEntity
  8
1
  6
SOLID
 62
        7
100
AcDbLine
 10
-581.854857656
 20
167.038749695
 30
0.0
 11
-581.854857656
 21
187.038749695
 31
0.0
  0
LINE
  5
5A1
100
AcDbEntity
  8
1
  6
CENTER
 62
        7
100
AcDbLine
 10
-933.854857656
 20
194.038749695
 30
0.0
 11
-856.366122566
 21
194.038749695
 31
0.0
  0
LINE
  5
5A2
100
AcDbEntity
  8
1
  6
SOLID
 62
        7
100
AcDbLine
 10
-370.854564708
 20
394.038749695
 30
0.0
 11
-370.854564708
 21
237.038749695
 31
0.0
  0
LINE
  5
5A3
100
AcDbEntity
  8
1
  6
CENTER
 62
        7
100
AcDbLine
 10
-381.854564708
 20
169.317373204
 30
0.0
 11
-381.854564708
 21
223.038749695
 31
0.0
  0
LINE
  5
5A4
100
AcDbEntity
  8
1
  6
CENTER
 62
        7
100
AcDbLine
 10
-395.854564708
 20
169.317373204
 30
0.0
 11
-395.854564708
 21
223.038749695
 31
0.0
  0
LINE
  5
5A5
100
AcDbEntity
  8
1
  6
CENTER
 62
        7
100
AcDbLine
 10
-409.854564708
 20
169.317373204
 30
0.0
 11
-409.854564708
 21
223.038749695
 31
0.0
  0
LINE
  5
5A6
100
AcDbEntity
  8
1
  6
CENTER
 62
        7
100
AcDbLine
 10
-423.854564708
 20
169.317373204
 30
0.0
 11
-423.854564708
 21
223.038749695
 31
0.0
  0
LINE
  5
5A7
100
AcDbEntity
  8
1
  6
CENTER
 62
        7
100
AcDbLine
 10
-437.854564708
 20
169.317373204
 30
0.0
 11
-437.854564708
 21
223.038749695
 31
0.0
  0
LINE
  5
5A8
100
AcDbEntity
  8
1
  6
CENTER
 62
        7
100
AcDbLine
 10
-451.854564708
 20
169.317373204
 30
0.0
 11
-451.854564708
 21
223.038749695
 31
0.0
  0
LINE
  5
5A9
100
AcDbEntity
  8
1
  6
CENTER
 62
        7
100
AcDbLine
 10
-465.854564708
 20
169.317373204
 30
0.0
 11
-465.854564708
 21
223.038749695
 31
0.0
  0
LINE
  5
5AA
100
AcDbEntity
  8
1
  6
CENTER
 62
        7
100
AcDbLine
 10
-479.854564708
 20
169.317373204
 30
0.0
 11
-479.854564708
 21
223.038749695
 31
0.0
  0
LINE
  5
5AB
100
AcDbEntity
  8
1
  6
SOLID
 62
        7
100
AcDbLine
 10
-490.854564708
 20
304.038749695
 30
0.0
 11
-490.854564708
 21
237.038749695
 31
0.0
  0
LINE
  5
5AC
100
AcDbEntity
  8
1
  6
CENTER
 62
        7
100
AcDbLine
 10
-381.854564708
 20
438.760126186
 30
0.0
 11
-381.854564708
 21
408.038749695
 31
0.0
  0
LINE
  5
5AD
100
AcDbEntity
  8
1
  6
CENTER
 62
        7
100
AcDbLine
 10
-395.854564708
 20
438.760126186
 30
0.0
 11
-395.854564708
 21
408.038749695
 31
0.0
  0
LINE
  5
5AE
100
AcDbEntity
  8
1
  6
CENTER
 62
        7
100
AcDbLine
 10
-409.854564708
 20
438.760126186
 30
0.0
 11
-409.854564708
 21
408.038749695
 31
0.0
  0
LINE
  5
5AF
100
AcDbEntity
  8
1
  6
SOLID
 62
        7
100
AcDbLine
 10
-855.854857656
 20
187.038749695
 30
0.0
 11
-855.854857656
 21
167.038838254
 31
0.0
  0
LINE
  5
5B0
100
AcDbEntity
  8
1
  6
SOLID
 62
        7
100
AcDbLine
 10
-851.854902658
 20
167.038749695
 30
0.0
 11
-851.854902658
 21
187.038749695
 31
0.0
  0
LINE
  5
5B1
100
AcDbEntity
  8
1
  6
CENTER
 62
        7
100
AcDbLine
 10
-423.854564708
 20
438.760126186
 30
0.0
 11
-423.854564708
 21
408.038749695
 31
0.0
  0
LINE
  5
5B2
100
AcDbEntity
  8
1
  6
SOLID
 62
        7
100
AcDbLine
 10
-370.854564708
 20
426.038754991
 30
0.0
 11
-370.854564708
 21
408.038749695
 31
0.0
  0
LINE
  5
5B3
100
AcDbEntity
  8
1
  6
CENTER
 62
        7
100
AcDbLine
 10
-437.854564708
 20
438.760126186
 30
0.0
 11
-437.854564708
 21
408.038749695
 31
0.0
  0
LINE
  5
5B4
100
AcDbEntity
  8
1
  6
CENTER
 62
        7
100
AcDbLine
 10
-451.854564708
 20
438.760126186
 30
0.0
 11
-451.854564708
 21
408.038749695
 31
0.0
  0
LINE
  5
5B5
100
AcDbEntity
  8
1
  6
CENTER
 62
        7
100
AcDbLine
 10
-465.854564708
 20
438.760126186
 30
0.0
 11
-465.854564708
 21
408.038749695
 31
0.0
  0
LINE
  5
5B6
100
AcDbEntity
  8
1
  6
CENTER
 62
        7
100
AcDbLine
 10
-479.854564708
 20
438.760126186
 30
0.0
 11
-479.854564708
 21
408.038749695
 31
0.0
  0
LINE
  5
5B7
100
AcDbEntity
  8
1
  6
SOLID
 62
        7
100
AcDbLine
 10
-490.854564708
 20
426.038754991
 30
0.0
 11
-490.854564708
 21
408.038749695
 31
0.0
  0
LINE
  5
5B8
100
AcDbEntity
  8
1
  6
SOLID
 62
        7
100
AcDbLine
 10
-497.854872915
 20
304.038749695
 30
0.0
 11
-497.854872915
 21
237.038749695
 31
0.0
  0
LINE
  5
5B9
100
AcDbEntity
  8
1
  6
SOLID
 62
        7
100
AcDbLine
 10
-503.854872915
 20
245.038772601
 30
0.0
 11
-499.854872915
 21
245.038772601
 31
0.0
  0
LINE
  5
5BA
100
AcDbEntity
  8
1
  6
CENTER
 62
        7
100
AcDbLine
 10
-507.807325548
 20
197.538751316
 30
0.0
 11
-493.776118701
 21
197.538751316
 31
0.0
  0
LINE
  5
5BB
100
AcDbEntity
  8
1
  6
SOLID
 62
        7
100
AcDbLine
 10
-851.854902658
 20
207.397948258
 30
0.0
 11
-581.854857656
 21
207.397948258
 31
0.0
  0
LINE
  5
5BC
100
AcDbEntity
  8
1
  6
SOLID
 62
        7
100
AcDbLine
 10
-855.854857656
 20
229.038749695
 30
0.0
 11
-855.854857656
 21
201.038749695
 31
0.0
  0
LINE
  5
5BD
100
AcDbEntity
  8
1
  6
SOLID
 62
        7
100
AcDbLine
 10
-499.854872915
 20
245.038772601
 30
0.0
 11
-499.854872915
 21
180.038755094
 31
0.0
  0
LINE
  5
5BE
100
AcDbEntity
  8
1
  6
SOLID
 62
        7
100
AcDbLine
 10
-702.854901154
 20
333.397948258
 30
0.0
 11
-581.854857656
 21
333.397948258
 31
0.0
  0
LINE
  5
5BF
100
AcDbEntity
  8
1
  6
SOLID
 62
        7
100
AcDbLine
 10
-696.854901154
 20
344.679551132
 30
0.0
 11
-581.854857656
 21
344.679551132
 31
0.0
  0
LINE
  5
5C0
100
AcDbEntity
  8
1
  6
SOLID
 62
        7
100
AcDbLine
 10
-503.854872915
 20
180.038755094
 30
0.0
 11
-499.854872915
 21
180.038755094
 31
0.0
  0
LINE
  5
5C1
100
AcDbEntity
  8
1
  6
CENTER
 62
        7
100
AcDbLine
 10
-524.060719073
 20
230.038749695
 30
0.0
 11
-353.053701272
 21
230.038749695
 31
0.0
  0
LINE
  5
5C2
100
AcDbEntity
  8
1
  6
SOLID
 62
        7
100
AcDbLine
 10
-904.054842949
 20
187.038749695
 30
0.0
 11
-553.854872915
 21
187.038749695
 31
0.0
  0
LINE
  5
5C3
100
AcDbEntity
  8
1
  6
SOLID
 62
        7
100
AcDbLine
 10
-904.054842949
 20
201.038749695
 30
0.0
 11
-851.854902658
 21
201.038749695
 31
0.0
  0
LINE
  5
5C4
100
AcDbEntity
  8
1
  6
SOLID
 62
        7
100
AcDbLine
 10
-503.854872915
 20
386.038726789
 30
0.0
 11
-499.854872915
 21
386.038726789
 31
0.0
  0
LINE
  5
5C5
100
AcDbEntity
  8
1
  6
SOLID
 62
        7
100
AcDbLine
 10
-503.854872915
 20
428.038744296
 30
0.0
 11
-499.854872915
 21
428.038744296
 31
0.0
  0
LINE
  5
5C6
100
AcDbEntity
  8
1
  6
CENTER
 62
        7
100
AcDbLine
 10
-933.854857656
 20
414.038749695
 30
0.0
 11
-856.366122566
 21
414.038749695
 31
0.0
  0
LINE
  5
5C7
100
AcDbEntity
  8
1
  6
SOLID
 62
        7
100
AcDbLine
 10
-851.854902658
 20
441.038749695
 30
0.0
 11
-851.854902658
 21
421.038749695
 31
0.0
  0
LINE
  5
5C8
100
AcDbEntity
  8
1
  6
SOLID
 62
        7
100
AcDbLine
 10
-696.854901154
 20
347.397948258
 30
0.0
 11
-581.854857656
 21
347.397948258
 31
0.0
  0
LINE
  5
5C9
100
AcDbEntity
  8
1
  6
SOLID
 62
        7
100
AcDbLine
 10
-702.854901154
 20
358.679551132
 30
0.0
 11
-581.854857656
 21
358.679551132
 31
0.0
  0
LINE
  5
5CA
100
AcDbEntity
  8
1
  6
SOLID
 62
        7
100
AcDbLine
 10
-855.854857656
 20
379.038749695
 30
0.0
 11
-855.854857656
 21
407.038749695
 31
0.0
  0
LINE
  5
5CB
100
AcDbEntity
  8
1
  6
SOLID
 62
        7
100
AcDbLine
 10
-499.854872915
 20
386.038726789
 30
0.0
 11
-499.854872915
 21
428.038744296
 31
0.0
  0
LINE
  5
5CC
100
AcDbEntity
  8
1
  6
CENTER
 62
        7
100
AcDbLine
 10
-524.060719073
 20
401.038749695
 30
0.0
 11
-353.053701272
 21
401.038749695
 31
0.0
  0
LINE
  5
5CD
100
AcDbEntity
  8
1
  6
CENTER
 62
        7
100
AcDbLine
 10
-507.807325548
 20
410.538748073
 30
0.0
 11
-493.776118701
 21
410.538748073
 31
0.0
  0
LINE
  5
5CE
100
AcDbEntity
  8
1
  6
SOLID
 62
        7
100
AcDbLine
 10
-364.854872915
 20
236.038749695
 30
0.0
 11
-364.854872915
 21
224.038749695
 31
0.0
  0
LINE
  5
5CF
100
AcDbEntity
  8
1
  6
SOLID
 62
        7
100
AcDbLine
 10
-499.854872915
 20
237.038749695
 30
0.0
 11
-365.854872915
 21
237.038749695
 31
0.0
  0
LINE
  5
5D0
100
AcDbEntity
  8
1
  6
SOLID
 62
        7
100
AcDbLine
 10
-499.854872915
 20
223.038749695
 30
0.0
 11
-365.854872915
 21
223.038749695
 31
0.0
  0
LINE
  5
5D1
100
AcDbEntity
  8
1
  6
SOLID
 62
        7
100
AcDbLine
 10
-364.854872915
 20
395.038749695
 30
0.0
 11
-364.854872915
 21
407.038749695
 31
0.0
  0
LINE
  5
5D2
100
AcDbEntity
  8
1
  6
SOLID
 62
        7
100
AcDbLine
 10
-499.854872915
 20
394.038749695
 30
0.0
 11
-365.854872915
 21
394.038749695
 31
0.0
  0
LINE
  5
5D3
100
AcDbEntity
  8
1
  6
SOLID
 62
        7
100
AcDbLine
 10
-577.854857656
 20
319.038749695
 30
0.0
 11
-559.254741949
 21
319.038749695
 31
0.0
  0
LINE
  5
5D4
100
AcDbEntity
  8
1
  6
SOLID
 62
        7
100
AcDbLine
 10
-499.854872915
 20
408.038749695
 30
0.0
 11
-365.854872915
 21
408.038749695
 31
0.0
  0
LINE
  5
5D5
100
AcDbEntity
  8
1
  6
SOLID
 62
        7
100
AcDbLine
 10
-530.854857656
 20
289.038749695
 30
0.0
 11
-503.854872915
 21
289.038749695
 31
0.0
  0
LINE
  5
5D6
100
AcDbEntity
  8
1
  6
SOLID
 62
        7
100
AcDbLine
 10
-851.854902658
 20
204.679551132
 30
0.0
 11
-581.854857656
 21
204.679551132
 31
0.0
  0
LINE
  5
5D7
100
AcDbEntity
  8
1
  6
SOLID
 62
        7
100
AcDbLine
 10
-364.854872915
 20
236.038749695
 30
0.0
 11
-365.854872915
 21
237.038749695
 31
0.0
  0
LINE
  5
5D8
100
AcDbEntity
  8
1
  6
SOLID
 62
        7
100
AcDbLine
 10
-364.854872915
 20
224.038749695
 30
0.0
 11
-365.854872915
 21
223.038749695
 31
0.0
  0
LINE
  5
5D9
100
AcDbEntity
  8
1
  6
SOLID
 62
        7
100
AcDbLine
 10
-364.854872915
 20
395.038749695
 30
0.0
 11
-365.854872915
 21
394.038749695
 31
0.0
  0
LINE
  5
5DA
100
AcDbEntity
  8
1
  6
SOLID
 62
        7
100
AcDbLine
 10
-364.854872915
 20
407.038749695
 30
0.0
 11
-365.854872915
 21
408.038749695
 31
0.0
  0
LINE
  5
5DB
100
AcDbEntity
  8
1
  6
SOLID
 62
        7
100
AcDbLine
 10
-497.854872915
 20
304.038749695
 30
0.0
 11
-497.854872915
 21
394.038749695
 31
0.0
  0
LINE
  5
5DC
100
AcDbEntity
  8
1
  6
SOLID
 62
        7
100
AcDbLine
 10
-581.854882257
 20
436.038780212
 30
0.0
 11
-577.854882257
 21
436.038780212
 31
0.0
  0
LINE
  5
5DD
100
AcDbEntity
  8
1
  6
CENTER
 62
        7
100
AcDbLine
 10
-479.854564708
 20
237.038749695
 30
0.0
 11
-479.854564708
 21
304.038749695
 31
0.0
  0
LINE
  5
5DE
100
AcDbEntity
  8
1
  6
CENTER
 62
        7
100
AcDbLine
 10
-465.854564708
 20
237.038749695
 30
0.0
 11
-465.854564708
 21
304.038749695
 31
0.0
  0
LINE
  5
5DF
100
AcDbEntity
  8
1
  6
CENTER
 62
        7
100
AcDbLine
 10
-451.854564708
 20
237.038749695
 30
0.0
 11
-451.854564708
 21
304.038749695
 31
0.0
  0
LINE
  5
5E0
100
AcDbEntity
  8
1
  6
CENTER
 62
        7
100
AcDbLine
 10
-437.854564708
 20
237.038749695
 30
0.0
 11
-437.854564708
 21
304.038749695
 31
0.0
  0
LINE
  5
5E1
100
AcDbEntity
  8
1
  6
CENTER
 62
        7
100
AcDbLine
 10
-381.854564708
 20
237.038749695
 30
0.0
 11
-381.854564708
 21
304.038749695
 31
0.0
  0
LINE
  5
5E2
100
AcDbEntity
  8
1
  6
CENTER
 62
        7
100
AcDbLine
 10
-395.854564708
 20
237.038749695
 30
0.0
 11
-395.854564708
 21
304.038749695
 31
0.0
  0
LINE
  5
5E3
100
AcDbEntity
  8
1
  6
CENTER
 62
        7
100
AcDbLine
 10
-409.854564708
 20
237.038749695
 30
0.0
 11
-409.854564708
 21
304.038749695
 31
0.0
  0
LINE
  5
5E4
100
AcDbEntity
  8
1
  6
CENTER
 62
        7
100
AcDbLine
 10
-423.854564708
 20
237.038749695
 30
0.0
 11
-423.854564708
 21
304.038749695
 31
0.0
  0
LINE
  5
5E5
100
AcDbEntity
  8
1
  6
CENTER
 62
        7
100
AcDbLine
 10
-381.854564708
 20
394.038749695
 30
0.0
 11
-381.854564708
 21
304.038749695
 31
0.0
  0
LINE
  5
5E6
100
AcDbEntity
  8
1
  6
CENTER
 62
        7
100
AcDbLine
 10
-395.854564708
 20
394.038749695
 30
0.0
 11
-395.854564708
 21
304.038749695
 31
0.0
  0
LINE
  5
5E7
100
AcDbEntity
  8
1
  6
SOLID
 62
        7
100
AcDbLine
 10
-723.854901154
 20
361.397948258
 30
0.0
 11
-581.854857656
 21
361.397948258
 31
0.0
  0
LINE
  5
5E8
100
AcDbEntity
  8
1
  6
SOLID
 62
        7
100
AcDbLine
 10
-723.854901154
 20
375.397948258
 30
0.0
 11
-581.854857656
 21
375.397948258
 31
0.0
  0
LINE
  5
5E9
100
AcDbEntity
  8
1
  6
SOLID
 62
        7
100
AcDbLine
 10
-723.854901154
 20
372.679551132
 30
0.0
 11
-581.854857656
 21
372.679551132
 31
0.0
  0
LINE
  5
5EA
100
AcDbEntity
  8
1
  6
SOLID
 62
        7
100
AcDbLine
 10
-734.854901154
 20
366.538741771
 30
0.0
 11
-734.854901154
 21
377.038749695
 31
0.0
  0
LINE
  5
5EB
100
AcDbEntity
  8
1
  6
SOLID
 62
        7
100
AcDbLine
 10
-851.854902658
 20
182.660061695
 30
0.0
 11
-581.854857656
 21
182.660061695
 31
0.0
  0
LINE
  5
5EC
100
AcDbEntity
  8
1
  6
SOLID
 62
        7
100
AcDbLine
 10
-530.854857656
 20
274.038749695
 30
0.0
 11
-530.854857656
 21
334.038749695
 31
0.0
  0
LINE
  5
5ED
100
AcDbEntity
  8
1
  6
SOLID
 62
        7
100
AcDbLine
 10
-568.854857656
 20
317.038749695
 30
0.0
 11
-545.928015567
 21
321.815117561
 31
0.0
  0
LINE
  5
5EE
100
AcDbEntity
  8
1
  6
SOLID
 62
        7
100
AcDbLine
 10
-851.854902658
 20
386.679551132
 30
0.0
 11
-581.854857656
 21
386.679551132
 31
0.0
  0
LINE
  5
5EF
100
AcDbEntity
  8
1
  6
SOLID
 62
        7
100
AcDbLine
 10
-851.854902658
 20
389.397948258
 30
0.0
 11
-581.854857656
 21
389.397948258
 31
0.0
  0
LINE
  5
5F0
100
AcDbEntity
  8
1
  6
SOLID
 62
        7
100
AcDbLine
 10
-851.854902658
 20
400.679551132
 30
0.0
 11
-581.854857656
 21
400.679551132
 31
0.0
  0
LINE
  5
5F1
100
AcDbEntity
  8
1
  6
SOLID
 62
        7
100
AcDbLine
 10
-851.854902658
 20
403.397948258
 30
0.0
 11
-581.854857656
 21
403.397948258
 31
0.0
  0
LINE
  5
5F2
100
AcDbEntity
  8
1
  6
SOLID
 62
        7
100
AcDbLine
 10
-851.854902658
 20
179.951340197
 30
0.0
 11
-581.854857656
 21
179.951340197
 31
0.0
  0
LINE
  5
5F3
100
AcDbEntity
  8
1
  6
SOLID
 62
        7
100
AcDbLine
 10
-904.054842949
 20
187.038749695
 30
0.0
 11
-553.854872915
 21
187.038749695
 31
0.0
  0
LINE
  5
5F4
100
AcDbEntity
  8
1
  6
SOLID
 62
        7
100
AcDbLine
 10
-851.854902658
 20
425.417437694
 30
0.0
 11
-581.854857656
 21
425.417437694
 31
0.0
  0
LINE
  5
5F5
100
AcDbEntity
  8
1
  6
SOLID
 62
        7
100
AcDbLine
 10
-568.854857656
 20
291.038749695
 30
0.0
 11
-545.928015567
 21
286.262381829
 31
0.0
  0
LINE
  5
5F6
100
AcDbEntity
  8
1
  6
SOLID
 62
        7
100
AcDbLine
 10
-545.928015567
 20
321.815117561
 30
0.0
 11
-535.854857656
 21
325.124879406
 31
0.0
  0
LINE
  5
5F7
100
AcDbEntity
  8
1
  6
SOLID
 62
        7
100
AcDbLine
 10
-545.854857656
 20
286.500999874
 30
0.0
 11
-545.854857656
 21
321.450474075
 31
0.0
  0
LINE
  5
5F8
100
AcDbEntity
  8
1
  6
SOLID
 62
        7
100
AcDbLine
 10
-530.854857656
 20
334.038749695
 30
0.0
 11
-535.854857656
 21
334.038749695
 31
0.0
  0
LINE
  5
5F9
100
AcDbEntity
  8
1
  6
SOLID
 62
        7
100
AcDbLine
 10
-530.854857656
 20
274.038749695
 30
0.0
 11
-535.854857656
 21
274.038749695
 31
0.0
  0
LINE
  5
5FA
100
AcDbEntity
  8
1
  6
SOLID
 62
        7
100
AcDbLine
 10
-1030.255249032
 20
430.353871822
 30
0.0
 11
-1030.655249038
 21
430.353871822
 31
0.0
  0
LINE
  5
5FB
100
AcDbEntity
  8
1
  6
SOLID
 62
        7
100
AcDbLine
 10
-547.097498343
 20
167.038774829
 30
0.0
 11
-568.854857656
 21
167.038774829
 31
0.0
  0
LINE
  5
5FC
100
AcDbEntity
  8
1
  6
SOLID
 62
        7
100
AcDbLine
 10
-538.854872915
 20
283.938342249
 30
0.0
 11
-538.854872915
 21
169.038774829
 31
0.0
  0
ARC
  5
5FD
100
AcDbEntity
  8
1
  6
SOLID
 62
        7
100
AcDbCircle
 10
-540.854872915
 20
169.038774829
 30
0.0
 40
2.0
100
AcDbArc
 50
270.0
 51
0.0
  0
LINE
  5
5FE
100
AcDbEntity
  8
1
  6
SOLID
 62
        7
100
AcDbLine
 10
-551.854872915
 20
167.038774829
 30
0.0
 11
-540.854872915
 21
167.038774829
 31
0.0
  0
ARC
  5
5FF
100
AcDbEntity
  8
1
  6
SOLID
 62
        7
100
AcDbCircle
 10
-551.854872915
 20
169.038774829
 30
0.0
 40
2.0
100
AcDbArc
 50
180.0
 51
270.0
  0
LINE
  5
600
100
AcDbEntity
  8
1
  6
SOLID
 62
        7
100
AcDbLine
 10
-553.854872915
 20
287.913790539
 30
0.0
 11
-553.854872915
 21
169.038774829
 31
0.0
  0
LINE
  5
601
100
AcDbEntity
  8
1
  6
SOLID
 62
        7
100
AcDbLine
 10
-577.854857656
 20
167.038774829
 30
0.0
 11
-505.854872915
 21
167.038774829
 31
0.0
  0
LINE
  5
602
100
AcDbEntity
  8
1
  6
SOLID
 62
        7
100
AcDbLine
 10
-503.854872915
 20
169.038774829
 30
0.0
 11
-503.854872915
 21
304.038749695
 31
0.0
  0
LINE
  5
603
100
AcDbEntity
  8
1
  6
SOLID
 62
        7
100
AcDbLine
 10
-851.854902658
 20
428.126159193
 30
0.0
 11
-581.854857656
 21
428.126159193
 31
0.0
  0
LINE
  5
604
100
AcDbEntity
  8
1
  6
SOLID
 62
        7
100
AcDbLine
 10
-851.854902658
 20
436.408870643
 30
0.0
 11
-581.854857656
 21
436.408870643
 31
0.0
  0
LINE
  5
605
100
AcDbEntity
  8
1
  6
CENTER
 62
        7
100
AcDbLine
 10
-409.854564708
 20
394.038749695
 30
0.0
 11
-409.854564708
 21
304.038749695
 31
0.0
  0
LINE
  5
606
100
AcDbEntity
  8
1
  6
SOLID
 62
        7
100
AcDbLine
 10
-923.854901154
 20
461.538827414
 30
0.0
 11
-1030.255194893
 21
461.538827414
 31
0.0
  0
ARC
  5
607
100
AcDbEntity
  8
1
  6
SOLID
 62
        7
100
AcDbCircle
 10
-1032.565879867
 20
374.110668659
 30
0.0
 40
4.089315121
100
AcDbArc
 50
145.615740999
 51
214.384259001
  0
LINE
  5
608
100
AcDbEntity
  8
1
  6
SOLID
 62
        7
100
AcDbLine
 10
-1030.655194899
 20
373.723871708
 30
0.0
 11
-1030.255194893
 21
373.723871708
 31
0.0
  0
LINE
  5
609
100
AcDbEntity
  8
1
  6
SOLID
 62
        7
100
AcDbLine
 10
-1035.940663567
 20
371.801267624
 30
0.0
 11
-1030.655194899
 21
371.801267624
 31
0.0
  0
LINE
  5
60A
100
AcDbEntity
  8
1
  6
SOLID
 62
        7
100
AcDbLine
 10
-1035.940663567
 20
376.420069695
 30
0.0
 11
-1030.655194899
 21
376.420069695
 31
0.0
  0
LINE
  5
60B
100
AcDbEntity
  8
1
  6
SOLID
 62
        7
100
AcDbLine
 10
-1030.655194899
 20
371.801267624
 30
0.0
 11
-1030.655194899
 21
390.276475906
 31
0.0
  0
LINE
  5
60C
100
AcDbEntity
  8
1
  6
SOLID
 62
        7
100
AcDbLine
 10
-1030.255194893
 20
388.353871822
 30
0.0
 11
-1030.655194899
 21
388.353871822
 31
0.0
  0
LINE
  5
60D
100
AcDbEntity
  8
1
  6
SOLID
 62
        7
100
AcDbLine
 10
-1030.655194899
 20
390.276475906
 30
0.0
 11
-1035.940663567
 21
390.276475906
 31
0.0
  0
ARC
  5
60E
100
AcDbEntity
  8
1
  6
SOLID
 62
        7
100
AcDbCircle
 10
-1032.565879867
 20
387.967074871
 30
0.0
 40
4.089315121
100
AcDbArc
 50
145.615740999
 51
214.384259001
  0
LINE
  5
60F
100
AcDbEntity
  8
1
  6
SOLID
 62
        7
100
AcDbLine
 10
-1035.940663567
 20
385.657673836
 30
0.0
 11
-1030.655194899
 21
385.657673836
 31
0.0
  0
LINE
  5
610
100
AcDbEntity
  8
1
  6
CENTER
 62
        7
100
AcDbLine
 10
-423.854564708
 20
394.038749695
 30
0.0
 11
-423.854564708
 21
304.038749695
 31
0.0
  0
LINE
  5
611
100
AcDbEntity
  8
1
  6
CENTER
 62
        7
100
AcDbLine
 10
-479.854564708
 20
394.038749695
 30
0.0
 11
-479.854564708
 21
304.038749695
 31
0.0
  0
LINE
  5
612
100
AcDbEntity
  8
1
  6
SOLID
 62
        7
100
AcDbLine
 10
-581.854857656
 20
441.038749695
 30
0.0
 11
-581.854857656
 21
421.038749695
 31
0.0
  0
LINE
  5
613
100
AcDbEntity
  8
1
  6
SOLID
 62
        7
100
AcDbLine
 10
-851.854902658
 20
441.038749695
 30
0.0
 11
-581.854857656
 21
441.038749695
 31
0.0
  0
LINE
  5
614
100
AcDbEntity
  8
1
  6
CENTER
 62
        7
100
AcDbLine
 10
-465.854564708
 20
394.038749695
 30
0.0
 11
-465.854564708
 21
304.038749695
 31
0.0
  0
LINE
  5
615
100
AcDbEntity
  8
1
  6
CENTER
 62
        7
100
AcDbLine
 10
-451.854564708
 20
394.038749695
 30
0.0
 11
-451.854564708
 21
304.038749695
 31
0.0
  0
LINE
  5
616
100
AcDbEntity
  8
1
  6
CENTER
 62
        7
100
AcDbLine
 10
-437.854564708
 20
394.038749695
 30
0.0
 11
-437.854564708
 21
304.038749695
 31
0.0
  0
LINE
  5
617
100
AcDbEntity
  8
1
  6
SOLID
 62
        7
100
AcDbLine
 10
-851.854902658
 20
172.038838254
 30
0.0
 11
-855.854857656
 21
172.038838254
 31
0.0
  0
ARC
  5
618
100
AcDbEntity
  8
1
  6
SOLID
 62
        7
100
AcDbCircle
 10
-505.854872915
 20
169.038774829
 30
0.0
 40
2.0
100
AcDbArc
 50
270.0
 51
0.0
  0
ARC
  5
619
100
AcDbEntity
  8
1
  6
SOLID
 62
        7
100
AcDbCircle
 10
-1021.369731636
 20
381.038871765
 30
0.0
 40
15.285463353
100
AcDbArc
 50
162.412040055
 51
197.587959945
  0
LINE
  5
61A
100
AcDbEntity
  8
1
  6
SOLID
 62
        7
100
AcDbLine
 10
-530.854857656
 20
319.038749695
 30
0.0
 11
-503.854872915
 21
319.038749695
 31
0.0
  0
LINE
  5
61B
100
AcDbEntity
  8
1
  6
SOLID
 62
        7
100
AcDbLine
 10
-1036.655194989
 20
374.110668659
 30
0.0
 11
-1036.655194989
 21
387.967074871
 31
0.0
  0
LINE
  5
61C
100
AcDbEntity
  8
1
  6
SOLID
 62
        7
100
AcDbLine
 10
-1030.255194893
 20
461.538827414
 30
0.0
 11
-1030.255194893
 21
304.038749695
 31
0.0
  0
LINE
  5
61D
100
AcDbEntity
  8
1
  6
SOLID
 62
        7
100
AcDbLine
 10
-983.854903853
 20
461.538827414
 30
0.0
 11
-983.854903853
 21
324.434824838
 31
0.0
  0
ENDSEC
  0
SECTION
  2
OBJECTS
  0
DICTIONARY
  5
19
100
AcDbDictionary
  3
ACAD_GROUP
350
1A
  3
ACAD_MLINESTYLE
350
1B
  0
DICTIONARY
  5
1A
102
{ACAD_REACTORS
330
19
102
}
100
AcDbDictionary
  0
DICTIONARY
  5
1B
102
{ACAD_REACTORS
330
19
102
}
100
AcDbDictionary
  3
STANDARD
350
1C
  0
MLINESTYLE
  5
1C
102
{ACAD_REACTORS
330
1B
102
}
100
AcDbMlineStyle
  2
STANDARD
 70
        0
  3

 62
        0
 51
90.0
 52
90.0
 71
        2
 49
0.5
 62
      256
  6
BYLAYER
 49
-0.5
 62
      256
  6
BYLAYER
  0
ENDSEC
  0
EOF
